1 сезон

1 сезон

iTunes

1

КиноПоиск HD

Кинопоиск HD

iTunes

13

1 сезон

RePack

30

Ultimate

ВАЖНО

ИГРА 18+

pack

RePack

MK11
pack

Легкие деньги

RePack

jed

RePack

fifa19

RePack

RDR2

RePack

NEED FOR SPEED™ PAYBACK

4 сезон

9 сезон

Бесстыжие 9 сезон

Все сериалы

все сериалы на PB.wtf

RePack

FAR CRY 5
  
Magnet ссылка

Человек-паук 2 / Spider-Man 2 (Сэм Рэйми) [2004 г., Фантастика, боевик, приключения, HDRip-AVC, Дубляж, Лицензия] от DHT-Movies pb.wtf

Человек-паук 2 через торрент pb.wtf

Размер: 3.52 GB | Добавлен: 6 лет 10 мес. назад | Торрент скачан:137 раз
Скачать  

11-06-2014 08:50 Человек-паук 2 Скачать торрент  

Человек-паук 2 / Spider-Man 2Год выпуска: 2004
Страна: США
Жанр: Фантастика, боевик, приключения
Продолжительность: 02:07:53
Перевод: Дубляж, Лицензия
Субтитры: Субтитры: Русские (softsub (SRT))

Режиссер: Сэм Рэйми
Продюссер: Ави Арад, Джозеф М. Караччоло, Кевин Файги
Сценарий: Элвин Сарджент, Стэн Ли, Стив Дитко

Бюджет: $200 000 000
Премьера в мире: 25 июня 2004



В ролях: Тоби Магуайр, Кирстен Данст, Джеймс Франко, Альфред Молина, Розмари Харрис, Дж.К. Симмонс, Донна Мерфи, Дилан Бэйкер, Билл Нанн, Ванесса Ферлито, Уиллем Дефо, Клифф Робертсон, Тед Рэйми, Элизабет Бэнкс, Брюс Кэмпбелл, Грегг Эделман, Илья Баскин

Описание: С момента событий, произошедших в первом фильме, прошло два года. Тихоня Питер Паркер сталкивается с новыми проблемами: он борется со своим «даром и проклятьем», отчаянно пытаясь балансировать на грани двух своих жизней: метающего паутину супергероя Человека-Паука и обычного студента колледжа…
Мучимый своими секретами, Питер понимает, что его отношения со всеми, кто ему дорог, в опасности или заходят в тупик. Его любовь к Мэри Джейн становится еще сильнее, обостряемая порывом Питера раскрыть ей свой секрет и признаться в любви. Дружба с Гарри осложняется горечью молодого Осборна по умершему отцу и всё большим желанием отомстить Человеку-Пауку.
Даже любимая тетушка Мэй, у которой были нелегкие времена после смерти дяди Бена, начинает что-то подозревать насчет своего племянника. Жизнь Питера становится еще более сложной, когда он сталкивается с новым суперзлодеем — доктором Отто Октавиусом. Питер должен использовать все свои суперспособности, чтобы одолеть этого жестокого безумца с восемью конечностями…

Качество: HDRip-AVC | BDRip 1080p
Формат: MKV
Видео кодек: H.264
Аудио кодек: AC3
Видео: 1024 x 424 (2,40:1), 23,976 fps, AVC (х264) High@L4.1, ~3570 Kbps, 0.343 bit/pixel
Аудио#1: 48 kHz, AC3 Dolby Digital, 3/2 (L,C,R,l,r) + LFE ch, ~ 384 kbps avg


Релиз группа: | by Dean24
скриншот  скриншот  скриншот  
скриншот  скриншот  скриншот  





avs [info]: 1024x424p 1:1 @ 2500000/104271 fps (cfr)
x264 [info]: using SAR=1/1
x264 [info]: using cpu capabilities: MMX2 SSE2Fast SSSE3 Cache64 SlowShuffle
x264 [info]: profile High, level 4.1
x264 [info]: frame I:1562 Avg QP:13.99 size:100959
x264 [info]: frame P:47208 Avg QP:17.17 size: 36114
x264 [info]: frame B:134583 Avg QP:20.27 size: 11514
x264 [info]: consecutive B-frames: 4.4% 4.9% 9.2% 35.2% 16.0% 21.7% 3.5% 3.6% 0.8% 0.6% 0.3%
x264 [info]: mb I I16..4: 12.1% 54.6% 33.3%
x264 [info]: mb P I16..4: 1.9% 16.7% 3.3% P16..4: 29.9% 23.7% 18.0% 1.9% 0.8% skip: 3.7%
x264 [info]: mb B I16..4: 0.2% 2.6% 0.5% B16..8: 36.2% 13.8% 4.8% direct: 8.3% skip:33.8% L0:40.4% L1:39.5% BI:20.1%
x264 [info]: 8x8 transform intra:74.9% inter:53.6%
x264 [info]: direct mvs spatial:98.1% temporal:1.9%
x264 [info]: coded y,uvDC,uvAC intra: 88.9% 84.8% 64.0% inter: 35.2% 24.8% 6.3%
x264 [info]: i16 v,h,dc,p: 55% 12% 13% 20%
x264 [info]: i8 v,h,dc,ddl,ddr,vr,hd,vl,hu: 15% 10% 11% 8% 11% 11% 11% 11% 12%
x264 [info]: i4 v,h,dc,ddl,ddr,vr,hd,vl,hu: 17% 9% 6% 8% 13% 13% 12% 11% 12%
x264 [info]: i8c dc,h,v,p: 44% 23% 19% 14%
x264 [info]: Weighted P-Frames: Y:4.1% UV:2.5%
x264 [info]: ref P L0: 45.9% 12.3% 17.2% 5.5% 4.9% 2.9% 2.9% 1.4% 1.5% 1.1% 1.1% 0.8% 0.9% 0.7% 0.8% 0.1%
x264 [info]: ref B L0: 76.0% 10.6% 4.2% 2.3% 1.6% 1.3% 1.0% 0.7% 0.6% 0.5% 0.5% 0.4% 0.3% 0.2%
x264 [info]: ref B L1: 94.4% 5.6%
x264 [info]: kb/s:3569.53

x264 [total]: encoded 183353 frames, 1.24 fps, 3569.53 kb/s
________________________

Общее:
Уникальный идентификатор: 238675132364303937625814370215772023178 (0xB38F288F87C7E43E9CBECC1F7483E98A)
Полное имя: D:\Для сайта\Rip's\Spider-Man_2_HDRip-AVC_ot_DHT-Movies.mkv
Формат: Matroska
Версия формата: Version 4 / Version 2
Размер файла: 3,52 Гбайт
Продолжительность: 2 ч. 7 м.
Общий поток: 3943 Кбит/сек
Дата кодирования: UTC 2014-06-10 13:51:47
Программа кодирования: mkvmerge v6.6.0 ('The Edge Of The In Between') built on Dec 1 2013 17:55:00
Библиотека кодирования: libebml v1.3.0 + libmatroska v1.4.1

Видео:
Идентификатор: 1
Формат: AVC
Формат/Информация: Advanced Video Codec
Профиль формата: High@L4.1
Параметр CABAC формата: Да
Параметр ReFrames формата: 15 кадров
Идентификатор кодека: V_MPEG4/ISO/AVC
Продолжительность: 2 ч. 7 м.
Битрейт: 3570 Кбит/сек
Ширина: 1024 пикселя
Высота: 424 пикселя
Соотношение сторон: 2,40:1
Режим частоты кадров: Постоянный
Частота кадров: 23,976 кадра/сек
Цветовое пространство: YUV
Субдискретизация насыщенности: 4:2:0
Битовая глубина: 8 бит
Тип развёртки: Прогрессивная
Бит/(Пиксели*Кадры): 0.343
Размер потока: 3,11 Гбайт (88%)
Библиотека кодирования: x264 core 130 r2273 b3065e6
Настройки программы: cabac=1 / ref=15 / deblock=1:-2:-1 / analyse=0x3:0x133 / me=umh / subme=10 / psy=1 / psy_rd=0.97:0.10 / mixed_ref=1 / me_range=32 / chroma_me=1 / trellis=2 / 8x8dct=1 / cqm=0 / deadzone=21,11 / fast_pskip=0 / chroma_qp_offset=-3 / threads=3 / lookahead_threads=1 / sliced_threads=0 / nr=0 / decimate=1 / interlaced=0 / bluray_compat=0 / constrained_intra=0 / bframes=10 / b_pyramid=2 / b_adapt=2 / b_bias=0 / direct=3 / weightb=1 / open_gop=0 / weightp=2 / keyint=240 / keyint_min=23 / scenecut=40 / intra_refresh=0 / rc_lookahead=60 / rc=2pass / mbtree=1 / bitrate=3570 / ratetol=1.0 / qcomp=0.60 / qpmin=0 / qpmax=69 / qpstep=4 / cplxblur=20.0 / qblur=0.5 / ip_ratio=1.40 / aq=1:1.00
Default: Да
Forced: Нет

Аудио:
Идентификатор: 2
Формат: AC-3
Формат/Информация: Audio Coding 3
Расширение режима: CM (complete main)
Параметр Endianness формата: Big
Идентификатор кодека: A_AC3
Продолжительность: 2 ч. 7 м.
Вид битрейта: Постоянный
Битрейт: 384 Кбит/сек
Каналы: 6 каналов
Расположение каналов: Front: L C R, Side: L R, LFE
Частота: 48,0 КГц
Битовая глубина: 16 бит
Метод сжатия: С потерями
Размер потока: 351 Мбайт (10%)
Default: Да
Forced: Нет

Текст:
Идентификатор: 3
Формат: UTF-8
Идентификатор кодека: S_TEXT/UTF8
Идентификатор кодека/Информация: UTF-8 Plain Text
Язык: Russian
Default: Да
Forced: Нет

pb.wtf



Скачать Человек-паук 2 через торрент http://i62.fastpic.ru/big/2014/0610/5a/41f05654ac99c9e58ee0f363bb624a5a.png Скачать фильм Человек-паук 2 через торрент бесплантно в хорошем качестве Описание: С момента событий, произошедших в первом фильме, прошло два года. Тихоня Питер Паркер сталкивается с новыми проблемами: он ... 10 10 3
Торрент: Зарегистрирован [2014-06-11 08:50] · скачан: 137 раз
Статус: √ проверено
Размер: 3.52 GB
Как cкачать? Как скачать Человек-паук 2 через торрент | UTorrent

28-11-2019 20:33  

Отключить всю рекламу на сайте

11-06-2014 11:32 Человек-паук 2 Скачать торрент  

Отличный фильм помню еще в те времена когда только вышел смотрел )))pb.wtf



    Дорогой пользователь! Огромная просьба, поблагодарите релизера, оцените раздачу и оставьте свои комментарий, если Вы скачали Человек-паук 2 через торрент бесплатно! Внесите свою лепту в развитие PiratBit!
    Комментировать посты могут только пользователи прошедшие не сложную регистрацию
    Показать сообщения:    

    Человек-паук 2 через торрент
    Скачать бесплатно Человек-паук 2
    Человек-паук 2 скачать торрент
    Человек-паук 2 смотреть онлайн
    Cкачать фильм Человек-паук 2 бесплатно
    Человек-паук 2 скачать торрент в хорошем качестве
    Человек-паук 2 смотреть онлайн бесплатно в хорошем качестве


    Вы не можете начинать темы
    Вы не можете отвечать на сообщения
    Вы не можете редактировать свои сообщения
    Вы не можете удалять свои сообщения
    Вы не можете голосовать в опросах
    Вы не можете прикреплять файлы к сообщениям
    Вы можете скачивать файлы