2 сезон

iTunes

MVO

1

2 сезон

iTunes

iTunes

1 сезон

RePack

30

Новинка

ВАЖНО

ИГРА 18+

pack

RePack

MK11
pack

Легкие деньги

RePack

jed

RePack

fifa19

RePack

RDR2

RePack

NEED FOR SPEED™ PAYBACK

4 сезон

9 сезон

Бесстыжие 9 сезон

Все сериалы

все сериалы на PB.wtf

RePack

FAR CRY 5

Anonymous, доброй ночи, мы не успеваем собрать деньги на оплату серверов за декабрь и январь, помогите нам пожалуйста в это трудное время. В качестве благодарности мы отключим Вам всю рекламу на сайте (укажите свой ник в строку Ваше имя)!

×
  
Magnet ссылка

План побега / Escape Plan (Микаэль Хофстрём) [2013 г., Боевик, триллер, детектив, HDRip-AVC], Дубляж, Лицензия] От R.G. PiratFilms pb.wtf

План побега через торрент pb.wtf

Размер: 1.46 GB | Добавлен: 6 лет 7 мес. назад | Торрент скачан:482 раза
Скачать  

11-06-2014 13:57 План побега Скачать торрент  

Год выпуска: 2013
Страна: США
Жанр: Боевик, триллер, детектив
Продолжительность: 01:50:40
Перевод: Дубляж, Лицензия

Режиссер: Микаэль Хофстрём

В ролях: Сильвестр Сталлоне, Арнольд Шварценеггер, Джеймс Кэвизел, Фифти Сент, Винни Джонс, Винсент Д’Онофрио, Эми Райан, Фаран Таир, Сэм Нил, Мэтт Джералд
Режиссёр: Микаэль Хофстрём

Описание: Один из самых выдающихся мировых специалистов по системам безопасности соглашается на последнюю рисковую операцию: сбежать из суперсекретной высокотехнологичной тюрьмы, которую называют «Гробницей». Преданный Рэй Бреслин вынужден прибегнуть к помощи напарника — заключенного Эмиля Ротмайера, чтобы разработать отчаянный и практически неосуществимый план побега из самой защищенной тюрьмы в мире!

Качество: HDRip-AVC
Исходник :BDRip 1080р
Формат: MKV
Видео кодек: AVC
Аудио кодек: AC3
Видео: AVC, 1024x426 (2.40:1), 23.976 fps, 1 362 Kbps (0.130 bit/pixel)
Аудио: AC-3, 48.0 KHz, 6 ch, 448 Kbps, CBR
Релиз от: Рип by White Smoke
скриншот   скриншот   скриншот   скриншот   скриншот   скриншот  

Код:

---[Information] [10.06.2014 19:27:40] x264 [info]: frame I:1661  Avg QP:13.24  size: 51482  PSNR Mean Y:50.28 U:54.42 V:54.50 Avg:51.13 Global:50.57
---[Information] [10.06.2014 19:27:40] x264 [info]: frame P:34993 Avg QP:17.33  size: 14987  PSNR Mean Y:48.46 U:54.94 V:54.97 Avg:49.45 Global:48.76
---[Information] [10.06.2014 19:27:40] x264 [info]: frame B:129637 Avg QP:19.47  size:  4403  PSNR Mean Y:48.12 U:54.93 V:54.96 Avg:49.18 Global:48.16
---[Information] [10.06.2014 19:27:40] x264 [info]: consecutive B-frames:  2.3%  3.2%  6.2% 22.4% 15.0% 30.7%  6.2%  4.8%  2.2%  2.0%  1.4%  1.6%  2.0%

Общее
Уникальный идентификатор                 : 208625683924235950231060440929498208578 (0x9CF3D85DF717D4F3B3E2AD73A09E9942)
Полное имя                               : D:\Games\Plan.pobega.2013.HDRip-AVC.by White Smoke.R.G. PiratFilms.mkv
Формат                                   : Matroska
Версия формата                           : Version 4 / Version 2
Размер файла                             : 1,46 Гбайт
Продолжительность                        : 1 ч. 55 м.
Общий поток                              : 1812 Кбит/сек
Название фильма                          : Plan.pobega.2013.HDRip-AVC.by White Smoke.R.G. PiratFilms.mkv
Дата кодирования                         : UTC 2014-06-11 08:05:19
Программа кодирования                    : mkvmerge v6.8.0 ('Theme for Great Cities') 64bit built on Mar  2 2014 21:34:26
Библиотека кодирования                   : libebml v1.3.0 + libmatroska v1.4.1

Видео
Идентификатор                            : 1
Формат                                   : AVC
Формат/Информация                        : Advanced Video Codec
Профиль формата                          : High@L4.1
Параметр CABAC формата                   : Да
Параметр ReFrames формата                : 12 кадров
Идентификатор кодека                     : V_MPEG4/ISO/AVC
Продолжительность                        : 1 ч. 55 м.
Битрейт                                  : 1362 Кбит/сек
Ширина                                   : 1024 пикселя
Высота                                   : 426 пикселей
Соотношение сторон                       : 2,40:1
Режим частоты кадров                     : Постоянный
Частота кадров                           : 23,976 кадра/сек
Цветовое пространство                    : YUV
Субдискретизация насыщенности            : 4:2:0
Битовая глубина                          : 8 бит
Тип развёртки                            : Прогрессивная
Бит/(Пиксели*Кадры)                      : 0.130
Размер потока                            : 1,07 Гбайт (73%)
Библиотека кодирования                   : x264 core 138 r2358 9e941d1
Настройки программы                      : cabac=1 / ref=12 / deblock=1:-3:-3 / analyse=0x3:0x133 / me=tesa / subme=11 / psy=1 / psy_rd=1.00:0.00 / mixed_ref=1 / me_range=24 / chroma_me=1 / trellis=2 / 8x8dct=1 / cqm=0 / deadzone=21,11 / fast_pskip=0 / chroma_qp_offset=-2 / threads=12 / lookahead_threads=3 / sliced_threads=0 / nr=0 / decimate=1 / interlaced=0 / bluray_compat=0 / constrained_intra=0 / bframes=12 / b_pyramid=2 / b_adapt=2 / b_bias=12 / direct=3 / weightb=1 / open_gop=0 / weightp=2 / keyint=240 / keyint_min=23 / scenecut=40 / intra_refresh=0 / rc_lookahead=60 / rc=2pass / mbtree=1 / bitrate=1362 / ratetol=1.0 / qcomp=0.65 / qpmin=0 / qpmax=69 / qpstep=4 / cplxblur=20.0 / qblur=0.5 / ip_ratio=1.40 / aq=1:1.00
Язык                                     : English
Default                                  : Да
Forced                                   : Нет

Аудио
Идентификатор                            : 2
Формат                                   : AC-3
Формат/Информация                        : Audio Coding 3
Расширение режима                        : CM (complete main)
Параметр Endianness формата              : Big
Идентификатор кодека                     : A_AC3
Продолжительность                        : 1 ч. 55 м.
Вид битрейта                             : Постоянный
Битрейт                                  : 448 Кбит/сек
Каналы                                   : 6 каналов
Расположение каналов                     : Front: L C R, Side: L R, LFE
Частота                                  : 48,0 КГц
Битовая глубина                          : 16 бит
Метод сжатия                             : С потерями
Размер потока                            : 370 Мбайт (25%)
Default                                  : Да
Forced                                   : Нет


За Обложку к релизу спасибо XLASERpb.wtf



Скачать План побега через торрент http://pic.kartinco.top/new/img/2014-06/11/fhd9qvqu4hw7fuz5k53h6sd06.png Скачать фильм План побега через торрент бесплантно в хорошем качестве Описание: Один из самых выдающихся мировых специалистов по системам безопасности соглашается на последнюю рисковую операцию: сбежать из ... 9.9 10 18
Info! Золотая раздача, скачанное не засчитывается.
Торрент: Зарегистрирован [2014-06-11 13:57] · скачан: 482 раз
Статус: √ проверено
Размер: 1.46 GB
Как cкачать? Как скачать План побега через торрент | UTorrent

28-11-2019 20:33  

Отключить всю рекламу на сайте

    Дорогой пользователь! Огромная просьба, поблагодарите релизера, оцените раздачу и оставьте свои комментарий, если Вы скачали План побега через торрент бесплатно! Внесите свою лепту в развитие PiratBit!
    Комментировать посты могут только пользователи прошедшие не сложную регистрацию
    Показать сообщения:    

    План побега через торрент
    Скачать бесплатно План побега
    План побега скачать торрент
    План побега смотреть онлайн
    Cкачать фильм План побега бесплатно
    План побега скачать торрент в хорошем качестве
    План побега смотреть онлайн бесплатно в хорошем качестве


    Вы не можете начинать темы
    Вы не можете отвечать на сообщения
    Вы не можете редактировать свои сообщения
    Вы не можете удалять свои сообщения
    Вы не можете голосовать в опросах
    Вы не можете прикреплять файлы к сообщениям
    Вы можете скачивать файлы