Всегда рабочее зеркало без VPN и Proxy просто перед .vidak.icu напиши любое слово или цифру, Пример http://35sm.vidak.icu

MVO

2 сезон

1 сезон

1

1 сезон

iTunes

2 сезон

13

1 сезон

Deluxe

pack

Рекомендуем

Пиратка

30

ВАЖНО

RePack

MK11

RePack

jed

RePack

fifa19

RePack

RDR2

RePack

NEED FOR SPEED™ PAYBACK

Кинопоиск HD

6 сезон

 Острые козырьки 6 сезон

Все сериалы

все сериалы на PB.wtf

RePack

FAR CRY 5

Anonymous, нам критически не хватает 5601 руб. на оплату серверов и переферии за Апрель, помоги нам пожалуйста, вся надежда только на тебя. В благодарность мы отключим тебе всю рекламу на сайте!

×
  
Magnet ссылка

Нимфоманка: Часть 1 / Nymphomaniac: Vol. I (Ларс фон Триер / Lars von Trier) [2013 г., Драма, BDRip-AVC] AVO [Ю.Сербин] pb.wtf

Нимфоманка: Часть 1 через торрент pb.wtf

Размер: 2.18 GB | Добавлен: 7 лет 11 мес. назад | Торрент скачан:1584 раза
Смотреть онлайн Нимфоманка: Часть 1 | Скачать    Ребята, помогите собрать деньги на оплату серверов!!!

11-06-2014 14:00 Нимфоманка: Часть 1 Скачать торрент  

Нимфоманка: Часть 1 / Nymphomaniac: Vol. I
Год выпуска: 2013
Страна: Дания, Германия, Франция, Бельгия, Великобритания
Жанр: Драма
Продолжительность: 01:57:20
Перевод: Авторский (Ю.Сербин)
Субтитры: Русские (Notabenoid), английские (Full + SDH + SDH-Colored)

Режиссер: Ларс фон Триер / Lars von Trier



В ролях: Шарлотта Генсбур, Стэйси Мартин, Стеллан Скарсгард, Шайа ЛаБаф, Кристиан Слэйтер, Ума Турман, Софи Кеннеди Кларк, Йенс Альбинус, Николас Бро, Фелисити Гилберт

Описание: Однажды одинокий и уже не особенно молодой мужчина по имени Селигман нашел на улице Джо – сильно избитую женщину, лежащую без сознания. Принеся ее домой и осмотрев раны, Селигман в приходит в недоумение: как с ней могла приключиться такая беда? В ответ на этот вопрос Джо дает Селигману исчерпывающий ответ – начинает рассказывать свою историю, окрашенную во все тона эротических переживаний. Будучи еще совсем юной девушкой, Джо сама поставила себе диагноз «нимфомания» и решила, что нет смысла сдерживать сексуальные желания.

Качество: BDRip-AVC
Формат: MKV
Видео кодек: H.264
Аудио кодек: AC3
Видео: х.264, 1040x442 (2.35:1), 23,976 fps, 1763 Кbps, 0.160 bit/pixel
Аудио#1: 48 kHz, AC3 Dolby Digital, 3/2 (L,C,R,l,r) + LFE ch, 448.00 kbps | RUS
Аудио#2: 48 kHz, AC3 Dolby Digital, 3/2 (L,C,R,l,r) + LFE ch, 448.00 kbps | ENG

Релиз группы:
Автор рипа: potroks
Общее
Уникальный идентификатор : 236266605396414495379009390055002461428 (0xB1BF4B034DDE9DC780B21E055343D4F4)
Полное имя : Nimfomanka.I.2013.DUAL.BDRip.x264.-HELLYWOOD.mkv
Формат : Matroska
Версия формата : Version 4 / Version 2
Размер файла : 2,18 Гбайт
Продолжительность : 1 ч. 57 м.
Общий поток : 2662 Кбит/сек
Название фильма : HELLYWOOD - rip by potroks
Дата кодирования : UTC 2014-06-10 19:10:54
Программа кодирования : mkvmerge v5.9.0 ('On The Loose') built on Dec 15 2012 16:39:58
Библиотека кодирования : libebml v1.3.0 + libmatroska v1.4.0
Видео
Идентификатор : 1
Формат : AVC
Формат/Информация : Advanced Video Codec
Профиль формата : High@L4.1
Параметр CABAC формата : Да
Параметр ReFrames формата : 10 кадров
Идентификатор кодека : V_MPEG4/ISO/AVC
Продолжительность : 1 ч. 57 м.
Битрейт : 1763 Кбит/сек
Ширина : 1040 пикселей
Высота : 442 пикселя
Соотношение сторон : 2,35:1
Режим частоты кадров : Постоянный
Частота кадров : 23,976 кадра/сек
Цветовое пространство : YUV
Субдискретизация насыщенности : 4:2:0
Битовая глубина : 8 бит
Тип развёртки : Прогрессивная
Бит/(Пиксели*Кадры) : 0.160
Размер потока : 1,40 Гбайт (64%)
Заголовок : Nymphomaniac: Vol. I
Библиотека кодирования : x264 core 130 r2273 b3065e6
Настройки программы : cabac=1 / ref=10 / deblock=1:-2:-2 / analyse=0x3:0x133 / me=umh / subme=11 / psy=1 / psy_rd=0.99:0.03 / mixed_ref=1 / me_range=32 / chroma_me=1 / trellis=2 / 8x8dct=1 / cqm=0 / deadzone=21,11 / fast_pskip=0 / chroma_qp_offset=-3 / threads=9 / lookahead_threads=6 / sliced_threads=0 / nr=0 / decimate=0 / interlaced=0 / bluray_compat=0 / constrained_intra=0 / bframes=11 / b_pyramid=2 / b_adapt=2 / b_bias=0 / direct=3 / weightb=1 / open_gop=0 / weightp=2 / keyint=250 / keyint_min=23 / scenecut=40 / intra_refresh=0 / rc_lookahead=60 / rc=2pass / mbtree=0 / bitrate=1763 / ratetol=1.0 / qcomp=0.70 / qpmin=0 / qpmax=69 / qpstep=4 / cplxblur=20.0 / qblur=0.5 / vbv_maxrate=20000 / vbv_bufsize=25000 / nal_hrd=none / ip_ratio=1.35 / pb_ratio=1.25 / aq=1:0.80
Язык : Dutch
Default : Да
Forced : Нет
Аудио #1
Идентификатор : 2
Формат : AC-3
Формат/Информация : Audio Coding 3
Расширение режима : CM (complete main)
Параметр Endianness формата : Big
Идентификатор кодека : A_AC3
Продолжительность : 1 ч. 57 м.
Вид битрейта : Постоянный
Битрейт : 448 Кбит/сек
Каналы : 6 каналов
Расположение каналов : Front: L C R, Side: L R, LFE
Частота : 48,0 КГц
Битовая глубина : 16 бит
Метод сжатия : С потерями
Размер потока : 376 Мбайт (17%)
Заголовок : AVO | DD 5.1 @ 448 kbps - Ю.Сербин
Язык : Russian
Default : Да
Forced : Нет
Аудио #2
Идентификатор : 3
Формат : AC-3
Формат/Информация : Audio Coding 3
Расширение режима : CM (complete main)
Параметр Endianness формата : Big
Идентификатор кодека : A_AC3
Продолжительность : 1 ч. 57 м.
Вид битрейта : Постоянный
Битрейт : 448 Кбит/сек
Каналы : 6 каналов
Расположение каналов : Front: L C R, Side: L R, LFE
Частота : 48,0 КГц
Битовая глубина : 16 бит
Метод сжатия : С потерями
Размер потока : 376 Мбайт (17%)
Заголовок : Original | DD 5.1 @ 448 kbps
Язык : English
Default : Нет
Forced : Нет
Текст #1
Идентификатор : 4
Формат : UTF-8
Идентификатор кодека : S_TEXT/UTF8
Идентификатор кодека/Информация : UTF-8 Plain Text
Заголовок : notabenoid
Язык : Russian
Default : Нет
Forced : Нет
Текст #2
Идентификатор : 5
Формат : UTF-8
Идентификатор кодека : S_TEXT/UTF8
Идентификатор кодека/Информация : UTF-8 Plain Text
Заголовок : SDH
Язык : English
Default : Нет
Forced : Нет
Текст #3
Идентификатор : 6
Формат : UTF-8
Идентификатор кодека : S_TEXT/UTF8
Идентификатор кодека/Информация : UTF-8 Plain Text
Язык : English
Default : Нет
Forced : Нет
Текст #4
Идентификатор : 7
Формат : UTF-8
Идентификатор кодека : S_TEXT/UTF8
Идентификатор кодека/Информация : UTF-8 Plain Text
Заголовок : SDH Low
Язык : English
Default : Нет
Forced : Нет
Меню
00:00:00.000 : en:00:00:00.000
00:09:42.999 : en:00:09:42.999
00:19:42.014 : en:00:19:42.014
00:27:40.409 : en:00:27:40.409
00:40:14.162 : en:00:40:14.162
00:48:19.522 : en:00:48:19.522
00:55:58.605 : en:00:55:58.605
01:05:28.883 : en:01:05:28.883
01:14:34.011 : en:01:14:34.011
01:25:36.673 : en:01:25:36.673
01:38:33.074 : en:01:38:33.074
01:47:18.182 : en:01:47:18.182

pb.wtf



Скачать Нимфоманка: Часть 1 через торрент https://pic.kartinco.top/new/img/2014-06/11/ucnx5h2a9lp63rbk4qzcmlkn7.png Скачать, смотреть онлайн Нимфоманка: Часть 1 бесплантно в хорошем качестве Описание: Однажды одинокий и уже не особенно молодой мужчина по имени Селигман нашел на улице Джо – сильно избитую женщину, лежащую без ... 9.7 10 21
Торрент: Зарегистрирован [2014-06-11 14:00] · скачан: 1 584 раз
Статус: √ проверено
Размер: 2.18 GB
Как cкачать? Как скачать Нимфоманка: Часть 1 через торрент | UTorrent

% Раздел Тема Автор DL S | L
Фильмы [HD 720p, 1080p] (Хороший звук DUB, MVO) [ 26.65 GB ] Нимфоманка: Часть 1-2 / Nymphomaniac: Vol. I-II [2013 BDRip 1080p Любительский многоголосый|HamsterStudio] nn99nn Скачать
1 | 1
T Арт-хаус и авторское кино [ 2.05 GB ] Нимфоманка: Часть 1 / Nymphomaniac: Vol. I [2013 HDRip ][Чистый звук] Tipok_dv Скачать
1 | 1
T Фильмы (Blu-ray, BD-Remux, HDDVD) [ 23.66 GB ] Нимфоманка: Часть 1 / Nymphomaniac: Vol. I [2013 BDRemux ][Чистый звук] Ворон Скачать
1 | 0

28-11-2019 20:33  

Отключить всю рекламу на сайте

14-06-2014 04:04 Нимфоманка: Часть 1 Скачать торрент  

про , что-ли ?pb.wtf



29-06-2014 08:48 Нимфоманка: Часть 1 Скачать торрент  

глянемpb.wtf



    Дорогой пользователь! Огромная просьба, поблагодарите релизера, оцените раздачу и оставьте свои комментарий, если Вы скачали Нимфоманка: Часть 1 через торрент бесплатно!
    Комментировать посты могут только пользователи прошедшие не сложную регистрацию
    Показать сообщения:    

    Нимфоманка: Часть 1 через торрент
    Скачать бесплатно Нимфоманка: Часть 1
    Нимфоманка: Часть 1 скачать торрент
    Нимфоманка: Часть 1 смотреть онлайн
    Cкачать фильм Нимфоманка: Часть 1 бесплатно
    Нимфоманка: Часть 1 скачать торрент в хорошем качестве
    Нимфоманка: Часть 1 смотреть онлайн бесплатно в хорошем качестве


    Вы не можете начинать темы
    Вы не можете отвечать на сообщения
    Вы не можете редактировать свои сообщения
    Вы не можете удалять свои сообщения
    Вы не можете голосовать в опросах
    Вы не можете прикреплять файлы к сообщениям
    Вы можете скачивать файлы