>

7.4

iTunes

7.4

2 сезон

9.4

1 сезон

1

7.4

2 сезон

7.2

iTunes

6.0

MVO

13

6.1

iTunes

8.3

Пиратка

30

ULTIMATE

pack

9.9

Лицензия

ВАЖНО

ИГРА 18+

pack

7.3

RePack

MK11

7.7

RePack

jed

7.8

RePack

fifa19

8.5

RePack

RDR2

RePack

NEED FOR SPEED™ PAYBACK

1 сезон

9 сезон

Бесстыжие 9 сезон

Все сериалы

все сериалы на PB.wtf

RePack

FAR CRY 5

Anonymous, доброй ночи, мы катастрофически не успеваем собрать деньги на оплату серверов, помогите нам пожалуйста 5,10,15р., для нас важна любая помощь . В качестве благодарности мы отключим Вам всю рекламу на сайте (укажите свой ник в строку Ваше имя)!

×
  
Magnet ссылка

Узел дьявола / Devil's Knot (Атом Эгоян) [2013 г., драма, триллер, криминал, HDRip, Авторский (C. Визгунов)] pb.wtf

Узел дьявола через торрент pb.wtf

Размер: 1.37 GB | Добавлен: 7 лет 7 мес. назад | Торрент скачан:418 раз
Смотреть онлайн Узел дьявола | Скачать    Ребята, помогите собрать деньги на оплату серверов!!!

11-06-2014 17:52 Узел дьявола Скачать торрент  

Узел дьявола / Devil's Knot

Год выпуска: 2013
Страна: США
Выпущено: Worldview Entertainment, Rocket Science VFX
Жанр: драма, триллер, криминал
Продолжительность: 01:54:14
Перевод: Авторский (C. Визгунов)

Режиссер: Атом Эгоян
Продюссер: Пол Харрис Бордман, Элизабет Фаулер, Кларк Петерсон
Сценарий: Пол Харрис Бордман, Скотт Дерриксон, Мара Леверитт
Премьера в мире: 8 сентября 2013

IMDB 5.80 (2402)


В ролях: Колин Фёрт, Риз Уизерспун, Дэйн ДеХаан, Мирей Инос, Брюс Гринвуд, Элиас Котеас, Стивен Мойер, Алессандро Нивола, Эми Райан, Кевин Дюран

Описание: Небольшой американский городок потрясен зверским убийством трех детей. Трех подростков обвиняют в этом злодеянии, всего лишь на том основании, что они носят длинные волосы, черную одежду и слушают «сатанинскую» музыку. Только один человек в городе встает на их защиту — адвокат Рон Лакс. Он всеми силами борется против предубеждений и пытается спасти три невинные жизни.

Качество: HDRip
Формат: AVI
Видео кодек: XviD
Аудио кодек: AC3
Видео: XviD, 1320 Кбит/с, 720x400, 23.976 fps, 0.191
Аудио: AC3, 6 ch, 384 Кбит/с, 48.0 KHz
General
Complete name : /home/sb753/files/Uzel.djavola.2013.P1.HDRip.1400MB-TST.avi
Format : AVI
Format/Info : Audio Video Interleave
File size : 1.37 GiB
Duration : 1h 54mn
Overall bit rate : 1 713 Kbps
Writing application : VirtualDubMod 1.5.10.2 (build 2540/release)
Writing library : VirtualDubMod build 2540/release

Video
ID : 0
Format : MPEG-4 Visual
Format profile : Advanced Simple@L5
Format settings, BVOP : 2
Format settings, QPel : No
Format settings, GMC : No warppoints
Format settings, Matrix : Default (H.263)
Codec ID : XVID
Codec ID/Hint : XviD
Duration : 1h 54mn
Bit rate : 1 320 Kbps
Width : 720 pixels
Height : 400 pixels
Display aspect ratio : 16:9
Frame rate : 23.976 fps
Color space : YUV
Chroma subsampling : 4:2:0
Bit depth : 8 bits
Scan type : Progressive
Compression mode : Lossy
Bits/(Pixel*Frame) : 0.191
Stream size : 1.05 GiB (77%)
Writing library : XviD 1.2.1 (UTC 2008-12-04)

Audio
ID : 1
Format : AC-3
Format/Info : Audio Coding 3
Mode extension : CM (complete main)
Format settings, Endianness : Big
Codec ID : 2000
Duration : 1h 54mn
Bit rate mode : Constant
Bit rate : 384 Kbps
Channel(s) : 6 channels
Channel positions : Front: L C R, Side: L R, LFE
Sampling rate : 48.0 KHz
Bit depth : 16 bits
Compression mode : Lossy
Stream size : 314 MiB (22%)
Alignment : Split accross interleaves
Interleave, duration : 42 ms (1.00 video frame)
Interleave, preload duration : 500 ms
pb.wtf



Скачать Узел дьявола через торрент https://pic1.kartinco.top/images/61/d3oxg.jpg Скачать, смотреть онлайн Узел дьявола бесплантно в хорошем качестве Описание: Небольшой американский городок потрясен зверским убийством трех детей. Трех подростков обвиняют в этом злодеянии, всего лишь на ... 9.7 10 13
Info! Серебряная раздача, засчитывается только 50% скачанного.
Торрент: Зарегистрирован [2014-06-11 17:52] · скачан: 418 раз
Статус: √ проверено
Размер: 1.37 GB
Как cкачать? Как скачать Узел дьявола через торрент | UTorrent

28-11-2019 20:33  

Отключить всю рекламу на сайте

    Дорогой пользователь! Огромная просьба, поблагодарите релизера, оцените раздачу и оставьте свои комментарий, если Вы скачали Узел дьявола через торрент бесплатно!
    Комментировать посты могут только пользователи прошедшие не сложную регистрацию
    Показать сообщения:    

    Узел дьявола через торрент
    Скачать бесплатно Узел дьявола
    Узел дьявола скачать торрент
    Узел дьявола смотреть онлайн
    Cкачать фильм Узел дьявола бесплатно
    Узел дьявола скачать торрент в хорошем качестве
    Узел дьявола смотреть онлайн бесплатно в хорошем качестве


    Вы не можете начинать темы
    Вы не можете отвечать на сообщения
    Вы не можете редактировать свои сообщения
    Вы не можете удалять свои сообщения
    Вы не можете голосовать в опросах
    Вы не можете прикреплять файлы к сообщениям
    Вы можете скачивать файлы