2 сезон

iTunes

MVO

1

2 сезон

iTunes

iTunes

1 сезон

RePack

30

Новинка

ВАЖНО

ИГРА 18+

pack

RePack

MK11
pack

Легкие деньги

RePack

jed

RePack

fifa19

RePack

RDR2

RePack

NEED FOR SPEED™ PAYBACK

4 сезон

9 сезон

Бесстыжие 9 сезон

Все сериалы

все сериалы на PB.wtf

RePack

FAR CRY 5

Anonymous, добрый вечер, мы не успеваем собрать деньги на оплату серверов за декабрь и январь, помогите нам пожалуйста в это трудное время. В качестве благодарности мы отключим Вам всю рекламу на сайте (укажите свой ник в строку Ваше имя)!

×
  
Magnet ссылка

Чудовища Берингова моря / Bering Sea Beast (Дон Э. ФонтЛеРой) [2013 г., фантастика, WEB-DLRip, Профессиональный многоголосый] [iTunes] pb.wtf

Чудовища Берингова моря через торрент pb.wtf

Размер: 1.37 GB | Добавлен: 6 лет 7 мес. назад | Торрент скачан:453 раза
Скачать  

12-06-2014 13:29 Чудовища Берингова моря Скачать торрент  

Чудовища Берингова моря / Bering Sea Beast

Год выпуска: 2013
Страна: США
Жанр: фантастика
Продолжительность: 01:25:51
Перевод: Профессиональный многоголосый [iTunes]

Режиссер: Дон Э. ФонтЛеРой
Продюссер: Кеннет М. Бэдиш, Дэниэл Льюис, Анджела Манкусо
Сценарий: Брук Дархэм
Премьера в мире: 9 ноября 2013

IMDB 3.60 (151)


В ролях: Кассандра Сербе, Брэндон Бимер, Жаклин Флеминг, Джонатан Липники, Гарин Спаркс, Джимми Суитуотер, Лоуренс Тернер

Описание: В Беринговом море происходят ужасные вещи — люди становятся жертвами чудовищных морских вампиров... На судно «Черная гряда» прибывает новый член экипажа — матрос по имени Оуэн Пауэрс. Здесь его без особого энтузиазма встречает Донна, дочь сурового морского волка. Ее отец Гленн Хантер не объясняет, почему решил устроить этого парня на работу, но ходят шуточные слухи, что тот — его внебрачный сын. Ближе к полуночи команда «Черной гряды» отправляется исследовать участок, который, по их мнению, богат золотом. Брат донны Джо и боцман Джонас совершают погружение, и тут появляются они — кровожадные чудища.

Качество: WEB-DLRip
Формат: AVI
Видео кодек: XviD
Аудио кодек: AC3
Видео: 720x400 (1.80:1), 23.976 fps, XviD build 50 ~1885 kbps avg, 0.27 bit/pixel
Аудио: 48 kHz, AC3 Dolby Digital, 3/2 (L,C,R,l,r) + LFE ch, ~384 kbps
General
Complete name : /home/sb753/files/Tvari.Berengova.morya.2013.P.WEBDLRip.avi
Format : AVI
Format/Info : Audio Video Interleave
File size : 1.37 GiB
Duration : 1h 25mn
Overall bit rate : 2 279 Kbps
Writing application : VirtualDubMod 1.5.10.2 (build 2540/release)
Writing library : VirtualDubMod build 2540/release

Video
ID : 0
Format : MPEG-4 Visual
Format profile : Advanced Simple@L5
Format settings, BVOP : 2
Format settings, QPel : No
Format settings, GMC : No warppoints
Format settings, Matrix : Default (MPEG)
Codec ID : XVID
Codec ID/Hint : XviD
Duration : 1h 25mn
Bit rate : 1 886 Kbps
Width : 720 pixels
Height : 400 pixels
Display aspect ratio : 16:9
Frame rate : 23.976 fps
Color space : YUV
Chroma subsampling : 4:2:0
Bit depth : 8 bits
Scan type : Progressive
Compression mode : Lossy
Bits/(Pixel*Frame) : 0.273
Stream size : 1.13 GiB (83%)
Writing library : XviD 1.2.1 (UTC 2008-12-04)

Audio
ID : 1
Format : AC-3
Format/Info : Audio Coding 3
Mode extension : CM (complete main)
Format settings, Endianness : Big
Codec ID : 2000
Duration : 1h 25mn
Bit rate mode : Constant
Bit rate : 384 Kbps
Channel(s) : 6 channels
Channel positions : Front: L C R, Side: L R, LFE
Sampling rate : 48.0 KHz
Bit depth : 16 bits
Compression mode : Lossy
Stream size : 236 MiB (17%)
Alignment : Split accross interleaves
Interleave, duration : 42 ms (1.00 video frame)
Interleave, preload duration : 500 ms
pb.wtf



Скачать Чудовища Берингова моря через торрент https://pic.kartinco.top/images/6/kibyl.jpg Скачать фильм Чудовища Берингова моря через торрент бесплантно в хорошем качестве Описание: В Беринговом море происходят ужасные вещи — люди становятся жертвами чудовищных морских вампиров... На судно «Черная гряда» ... 8 10 21
Торрент: Зарегистрирован [2014-06-12 13:29] · скачан: 453 раз
Статус: √ проверено
Размер: 1.37 GB
Как cкачать? Как скачать Чудовища Берингова моря через торрент | UTorrent

28-11-2019 20:33  

Отключить всю рекламу на сайте

12-06-2014 14:00 Чудовища Берингова моря Скачать торрент  

ТВ 3- настоящий мистический?? :jest3:pb.wtf



12-06-2014 14:13 Чудовища Берингова моря Скачать торрент  

хахахахахах что это?как это вообще можно было придумать и выпустить?как это вообще можно было найти в инете и залить сюда?pb.wtf



12-06-2014 14:52 Чудовища Берингова моря Скачать торрент  

Страхи то какие ! roflpb.wtf



12-06-2014 15:52 Чудовища Берингова моря Скачать торрент  

почему впереводе звучит твари а не чудовища этолицуха или нетpb.wtf



12-06-2014 16:50 Чудовища Берингова моря Скачать торрент  

В трех скриншотах весь фильм. )pb.wtf



12-06-2014 17:47 Чудовища Берингова моря Скачать торрент  

tolikss330 писал(а):

В трех скриншотах весь фильм. )

)))))))))))))))))))))))))))))))))))))))))))))))))))))))))))))))))))))))))))))pb.wtf



13-06-2014 05:28 Чудовища Берингова моря Скачать торрент  

RockMAN писал(а):

tolikss330 писал(а):

В трех скриншотах весь фильм. )

)))))))))))))))))))))))))))))))))))))))))))))))))))))))))))))))))))))))))))))

А почему никто не позолотил? :sarcastic_blum:pb.wtf



13-06-2014 10:51 Чудовища Берингова моря Скачать торрент  

Allod писал(а):

хахахахахах что это?как это вообще можно было придумать и выпустить?как это вообще можно было найти в инете и залить сюда?

Не нравится проходи мимо!pb.wtf



17-06-2014 18:52 Чудовища Берингова моря Скачать торрент  

Мне кажется или кто-то удалил мой комент.....pb.wtf



    Дорогой пользователь! Огромная просьба, поблагодарите релизера, оцените раздачу и оставьте свои комментарий, если Вы скачали Чудовища Берингова моря через торрент бесплатно! Внесите свою лепту в развитие PiratBit!
    Комментировать посты могут только пользователи прошедшие не сложную регистрацию
    Показать сообщения:    

    Чудовища Берингова моря через торрент
    Скачать бесплатно Чудовища Берингова моря
    Чудовища Берингова моря скачать торрент
    Чудовища Берингова моря смотреть онлайн
    Cкачать фильм Чудовища Берингова моря бесплатно
    Чудовища Берингова моря скачать торрент в хорошем качестве
    Чудовища Берингова моря смотреть онлайн бесплатно в хорошем качестве


    Вы не можете начинать темы
    Вы не можете отвечать на сообщения
    Вы не можете редактировать свои сообщения
    Вы не можете удалять свои сообщения
    Вы не можете голосовать в опросах
    Вы не можете прикреплять файлы к сообщениям
    Вы можете скачивать файлы