Ссылка на приватное зеркало всего за 1$. Внимание количество ограничено!!!

OK

1+1

iTunes

мы

OK

1

WEB-DLRip

Джокер

Пифагор

Ведьмак / The Witcher сериал

iTunes

ПШазам

ОК

Оно 2

iTunes

30
pack

Вам бонус

ВАЖНО

!!Акция!!

Alien_RageХит недели

RePack

Resident Evil 21

ИГРА 18+

pack

RePack

jed

RePack

fifa19

RePack

Assassins Creed: Odyssey

RePack

NEED FOR SPEED™ PAYBACK

4 сезон

9 сезон

Бесстыжие 9 сезон

Все сериалы

все сериалы на PB.wtf

RePack

FAR CRY 5
  

Стрелок 2. Право на смерть / Серия 1-4 из 4) (Аршо Арутюнян) [2014 г., боевик, SATRip] pb.wtf

Стрелок 2. Право на смерть через торрент pb.wtf

Размер: 1.95 GB | Добавлен: 5 лет 7 мес. назад | Торрент скачан:1187 раз
Скачать  

12-06-2014 13:38 Стрелок 2. Право на смерть Скачать торрент  

Стрелок 2. Право на смерть Год выпуска: 2014
Страна: Россия
Жанр: боевик
Продолжительность: 4 х ~ 00:45:00

Режиссер: Аршо Арутюнян

В ролях: Евгений Березовский, Александр Носик, Станислав Эрклиевский, Дмитрий Клепацкий, Юлия Борисова (III), Сергей Холмогоров, Сос Джанибекян, Давид Кацарава, Арам Караханян, Сергей Апрельский, Виктор Фалалеев

Описание: События разворачиваются в наши дни в одном из среднеазиатских государств. Брата Мадины, вступившегося за сестру, убивают преследующие девушку бандиты. Отцу Мадины Абдулу отказывает в помощи давний друг. Убитый горем мужчина вынужден искать поддержки на стороне, так как все вокруг или запуганы, или подкуплены бандой головорезов. Абдул приезжает в Москву, где знакомится с бывшим сотрудником спецслужб Андреем Макаровым. Андрей соглашается помочь Абдулу. Спецслужбы оказывают Макарову негласное содействие. Помогают Андрею и его товарищам и односельчане Абдула...

Качество: SATRip
Формат: AVI
Видео кодек: DivX
Аудио кодек: MP3
Видео: MPEG4, DivX 5, 704x288 (2.40:1), 25.000 fps, 1 549 Kbps (0.306 bit/pixel)
Аудио: MP3, 48.0 KHz, 2 ch, 128 Kbps, CBR
скриншот   скриншот   скриншот   скриншот   скриншот   скриншот   скриншот   скриншот  

Код:

Формат                                   : AVI
Формат/Информация                        : Audio Video Interleave
Размер файла                             : 529 Мбайт
Продолжительность                        : 43 м.
Общий поток                              : 1687 Кбит/сек
Программа кодирования                    : VirtualDubMod 1.5.10.2 (build 2540/release)
Библиотека кодирования                   : VirtualDub build 29808/release

Видео
Идентификатор                            : 0
Формат                                   : MPEG-4 Visual
Параметр BVOP формата                    : Да
Параметр QPel формата                    : Нет
Параметр GMC формата                     : Без точки перехода
Параметр матрицы формата                 : Default (H.263)
Идентификатор кодека                     : DX50
Идентификатор кодека/Подсказка           : DivX 5
Продолжительность                        : 43 м.
Битрейт                                  : 1549 Кбит/сек
Ширина                                   : 704 пикселя
Высота                                   : 288 пикселей
Соотношение сторон                       : 2,40:1
Частота кадров                           : 25,000 кадров/сек
Цветовое пространство                    : YUV
Субдискретизация насыщенности            : 4:2:0
Битовая глубина                          : 8 бит
Тип развёртки                            : Прогрессивная
Метод сжатия                             : С потерями
Бит/(Пиксели*Кадры)                      : 0.306
Размер потока                            : 486 Мбайт (92%)
Библиотека кодирования                   : DivX 6.8.5 (UTC 2009-08-20)

Аудио
Идентификатор                            : 1
Формат                                   : MPEG Audio
Версия формата                           : Version 1
Профиль формата                          : Layer 3
Режим                                    : Joint stereo
Идентификатор кодека                     : 55
Идентификатор кодека/Подсказка           : MP3
Продолжительность                        : 43 м.
Вид битрейта                             : Постоянный
Битрейт                                  : 128 Кбит/сек
Каналы                                   : 2 канала
Частота                                  : 48,0 КГц
Метод сжатия                             : С потерями
Размер потока                            : 40,1 Мбайт (8%)
Выравнивание                             : Соединение по промежуткам
Продолжительность промежутка             : 40  мс. (1,00 видеокадр)
Время предзагрузки промежутка            : 504  мс.



Внимание! Раздача ведётся путём добавления новых серий; при каждом добавлении создётся новый торрент. Чтобы начать докачку новой серии, пользователям необходимо сделать следующее:
(1) остановить скачивание,
(2) удалить старый торрент у себя из клиента (старые серии удалять не надо),
(3) скачать новый торрент и запустить его у себя в клиенте вместо старого, при этом указать клиенту путь в старую папку куда и должно происходить скачивание новых серий.
Ваш клиент при этом должен произвести хеширование (проверку) старой папки (если не производит сам - помогите ему сделать это), и будет докачивать только те серии которых у вас ещё нет. Старые серии при этом не удаляются, а продолжают раздаваться!
Eсли вы уже удалили старые серии, то предотвратить повторную закачку старых серий можно, отжав галочку в соответсвующих местах при запуске нового торрента. По возможности, желательно не удалять старые серии как можно дольше чтобы релизёр не столько продолжал раздавать старые серии, а смог сконцентрироваться на новых.
Добавлена 3-4 серияpb.wtf



Скачать Стрелок 2. Право на смерть через торрент http://pic.kartinco.top/new/img/2014-06/12/2o4n75d1j7geifxmxd32yr6i2.jpg Скачать фильм Стрелок 2. Право на смерть через торрент бесплантно в хорошем качестве Описание: События разворачиваются в наши дни в одном из среднеазиатских государств. Брата Мадины, вступившегося за сестру, убивают ... 9.7 10 40
Info! Золотая раздача, скачанное не засчитывается.
Торрент: Зарегистрирован [2014-06-12 13:57] · скачан: 1 187 раз
Статус: √ проверено
Размер: 1.95 GB
Как cкачать? Как скачать Стрелок 2. Право на смерть через торрент | qTorrent

% Раздел Тема Автор DL S | L
Наши сериалы [ 7.18 GB ] Стрелок 2. Право на смерть / Сезон: 2 / Серии: 1-4 из 4 [2014 DVD9] R5 voovaz Скачать
1 | 0

28-11-2019 20:33  

Отключить всю рекламу на сайте

22-06-2014 07:55 Стрелок 2. Право на смерть Скачать торрент  

Спасибо за сериал.
А первый сезон был выложен на данный торент? Поиск не дал результатов.

Нашел первый сезон, лучше бы не искал))) Второй однозначно лучшеpb.wtf



    Дорогой пользователь! Огромная просьба, поблагодарите релизера, оцените раздачу и оставьте свои комментарий, если Вы скачали Стрелок 2. Право на смерть через торрент бесплатно! Внесите свою лепту в развитие PiratBit!
    Комментировать посты могут только пользователи прошедшие не сложную регистрацию
    Показать сообщения:    

    Стрелок 2. Право на смерть через торрент
    Скачать бесплатно Стрелок 2. Право на смерть
    Стрелок 2. Право на смерть скачать торрент
    Стрелок 2. Право на смерть смотреть онлайн
    Cкачать фильм Стрелок 2. Право на смерть бесплатно
    Стрелок 2. Право на смерть скачать торрент в хорошем качестве
    Стрелок 2. Право на смерть смотреть онлайн бесплатно в хорошем качестве


    Вы не можете начинать темы
    Вы не можете отвечать на сообщения
    Вы не можете редактировать свои сообщения
    Вы не можете удалять свои сообщения
    Вы не можете голосовать в опросах
    Вы не можете прикреплять файлы к сообщениям
    Вы можете скачивать файлы