Ссылка на приватное зеркало нашего сайта всего за 1$. Внимание количество ограничено!!!

2 сезон

iTunes

1 сезон

1

iTunes

iTunes

iTunes

1 сезон

RePack

30

ИГРА 18+

pack

ВАЖНО

!!Акция!!

Alien_RageХит недели

RePack

MK11
pack

Забери бонус

RePack

jed

!!Акция!!

Alien_Rage

RePack

fifa19

RePack

Assassins Creed: Odyssey

RePack

NEED FOR SPEED™ PAYBACK

4 сезон

9 сезон

Бесстыжие 9 сезон

Все сериалы

все сериалы на PB.wtf

RePack

FAR CRY 5
  

Куприн. Яма. Впотьмах. Поединок (Влад Фурман, Андрей Эшпай, Андрей Малюков, Сергей Кешишев) [2014 г., мелодрама, драма, HDTVRipp] pb.wtf

Куприн. Яма. Впотьмах. Поединок через торрент pb.wtf

Размер: 8.56 GB | Добавлен: 6 лет 4 мес. назад | Торрент скачан:775 раз
Скачать  

12-06-2014 15:49 Куприн. Яма. Впотьмах. Поединок Скачать торрент  

Куприн. Яма. Впотьмах. Поединок

Год выпуска: 2014
Страна: Россия
Выпущено: Красный квадрат кино, Студия русский проект
Жанр: мелодрама, драма
Продолжительность: 13 х ~ 00:50:00
Язык: Русский

Режиссер: Влад Фурман, Андрей Эшпай, Андрей Малюков, Сергей Кешишев
Продюссер: Константин Эрнст, Денис Евстигнеев, Татьяна Голынская
Сценарий: Николай Лырчиков, Елена Исаева, Ольга Михайлова



В ролях: Михаил Пореченков, Александра Черкасова, Полина Агуреева, Светлана Ходченкова, Александр Чевычелов, Антон Шагин, Максим Аверин, Леонид Кулагин, Ирина Леонова, Ольга Павловец, Екатерина Шпица, Анатолий Белый, Василий Щипицын, Наталья Егорова, Нелли Попова, Наталья Ткаченко, Ираида Краснопольская, Евгения Нохрина, Елизавета Боярская, Леонид Бичевин, Евгений Цыганов, Екатерина Тарасова, Максим Суханов, Евгения Симонова, Виталий Кищенко, Мариэтта Цигаль-Полищук

Описание: Многосерийный художественный фильм, снятый по мотивам повестей и рассказов классика русской литературы Александра Куприна. В картине три части - "Яма", "Впотьмах" и "Поединок". Главная идея фильма – переплести судьбы героев из разных повестей и рассказов Александра Куприна. Так, в "Яме" появляются влюбленный Георгий Степанович Желтков, Вера Николаевна Шеина и другие герои из "Гранатового браслета". В героя повести "Впотьмах" Аларина влюбляется дрессировщица тигров Зенида из рассказа "Люция". В повествование активно включен и сам Александр Куприн (Михаил Пореченков), который не просто исполняет роль рассказчика, но и лично встречается с героями.

Качество: HDTVRip
Формат: AVI
Видео кодек: XviD
Аудио кодек: AC3
Видео: XviD, ~ 1700 Кбит/с, 720x400, 25.000 fps, 0.236
Аудио: AC3, 2 ch, 192 Кбит/с, 48.0 KHz
General
Complete name : /home/sb753/files/Kuprin.HDTVRip.MediaClub/Kuprin.01.HDTVRip.MediaClub.avi
Format : AVI
Format/Info : Audio Video Interleave
File size : 692 MiB
Duration : 50mn 58s
Overall bit rate : 1 898 Kbps
Writing library : VirtualDub build 32507/release

Video
ID : 0
Format : MPEG-4 Visual
Format profile : Advanced Simple@L5
Format settings, BVOP : 2
Format settings, QPel : No
Format settings, GMC : No warppoints
Format settings, Matrix : Default (H.263)
Muxing mode : Packed bitstream
Codec ID : XVID
Codec ID/Hint : XviD
Duration : 50mn 58s
Bit rate : 1 696 Kbps
Width : 720 pixels
Height : 400 pixels
Display aspect ratio : 16:9
Frame rate : 25.000 fps
Color space : YUV
Chroma subsampling : 4:2:0
Bit depth : 8 bits
Scan type : Progressive
Compression mode : Lossy
Bits/(Pixel*Frame) : 0.236
Stream size : 618 MiB (89%)
Writing library : XviD 1.2.1 (UTC 2008-12-04)

Audio
ID : 1
Format : AC-3
Format/Info : Audio Coding 3
Mode extension : CM (complete main)
Format settings, Endianness : Big
Codec ID : 2000
Duration : 50mn 58s
Bit rate mode : Constant
Bit rate : 192 Kbps
Channel(s) : 2 channels
Channel positions : Front: L R
Sampling rate : 48.0 KHz
Bit depth : 16 bits
Compression mode : Lossy
Stream size : 70.0 MiB (10%)
Alignment : Aligned on interleaves
Interleave, duration : 40 ms (1.00 video frame)
Interleave, preload duration : 512 ms
pb.wtf



Скачать Куприн. Яма. Впотьмах. Поединок через торрент http://pic.kartinco.top/images/6/cihb5.jpg Скачать фильм Куприн. Яма. Впотьмах. Поединок через торрент бесплантно в хорошем качестве Описание: Многосерийный художественный фильм, снятый по мотивам повестей и рассказов классика русской литературы Александра Куприна. В ... 10 10 17
Info! Золотая раздача, скачанное не засчитывается.
Торрент: Зарегистрирован [2014-06-12 15:49] · скачан: 775 раз
Статус: √ проверено
Размер: 8.56 GB
Как cкачать? Как скачать Куприн. Яма. Впотьмах. Поединок через торрент | qTorrent

28-11-2019 20:33  

Отключить всю рекламу на сайте

    Дорогой пользователь! Огромная просьба, поблагодарите релизера, оцените раздачу и оставьте свои комментарий, если Вы скачали Куприн. Яма. Впотьмах. Поединок через торрент бесплатно! Внесите свою лепту в развитие PiratBit!
    Комментировать посты могут только пользователи прошедшие не сложную регистрацию
    Показать сообщения:    

    Куприн. Яма. Впотьмах. Поединок через торрент
    Скачать бесплатно Куприн. Яма. Впотьмах. Поединок
    Куприн. Яма. Впотьмах. Поединок скачать торрент
    Куприн. Яма. Впотьмах. Поединок смотреть онлайн
    Cкачать фильм Куприн. Яма. Впотьмах. Поединок бесплатно
    Куприн. Яма. Впотьмах. Поединок скачать торрент в хорошем качестве
    Куприн. Яма. Впотьмах. Поединок смотреть онлайн бесплатно в хорошем качестве


    Вы не можете начинать темы
    Вы не можете отвечать на сообщения
    Вы не можете редактировать свои сообщения
    Вы не можете удалять свои сообщения
    Вы не можете голосовать в опросах
    Вы не можете прикреплять файлы к сообщениям
    Вы можете скачивать файлы