Всегда рабочее зеркало просто перед .vidak.icu напиши любое слово или цифру, Пример http://trj.vidak.icu

>

7.4

iTunes

7.4

2 сезон

6.6

iTunes

1

7.4

2 сезон

7.2

iTunes

6.0

MVO

13

6.1

iTunes

8.3

Пиратка

30

ULTIMATE

pack

9.9

Лицензия

ВАЖНО

ИГРА 18+

pack

7.3

RePack

MK11

7.7

RePack

jed

7.8

RePack

fifa19

8.5

RePack

RDR2

RePack

NEED FOR SPEED™ PAYBACK

1 сезон

9 сезон

Бесстыжие 9 сезон

Все сериалы

все сериалы на PB.wtf

RePack

FAR CRY 5

Anonymous, добрый вечер, мы катастрофически не успеваем собрать деньги на оплату серверов, помогите нам пожалуйста 5,10,15р., для нас важна любая помощь . В качестве благодарности мы отключим Вам всю рекламу на сайте (укажите свой ник в строку Ваше имя)!

×
  
Magnet ссылка

Узел дьявола / Devil's Knot (Атом Эгоян) [2013 г., драма, триллер, криминал, BDRip, Авторский одноголосый C. Визгунов] pb.wtf

Узел дьявола через торрент pb.wtf

Размер: 2.13 GB | Добавлен: 7 лет 7 мес. назад | Торрент скачан:228 раз
Смотреть онлайн Узел дьявола | Скачать    Ребята, помогите собрать деньги на оплату серверов!!!

12-06-2014 17:24 Узел дьявола Скачать торрент  

Узел дьявола / Devil's Knot
Год выпуска: 2013
Страна: США / Worldview Entertainment
Жанр: драма, триллер, криминал
Продолжительность: 01:54:14
Перевод: Авторский одноголосый (C. Визгунов)

Режиссер: Атом Эгоян

В ролях: Колин Фёрт, Риз Уизерспун, Дэйн ДеХаан, Мирей Инос, Брюс Гринвуд, Элиас Котеас, Стивен Мойер, Алессандро Нивола, Эми Райан, Кевин Дюран

Описание: Небольшой американский городок потрясен зверским убийством трех детей. Трех подростков обвиняют в этом злодеянии, всего лишь на том основании, что они носят длинные волосы, черную одежду и слушают «сатанинскую» музыку. Только один человек в городе встает на их защиту — адвокат Рон Лакс. Он всеми силами борется против предубеждений и пытается спасти три невинные жизни.

Качество: BDRip (Рип с BD-Remux1080p)
Формат: AVI
Видео кодек: XviD
Аудио кодек: AC3
Видео: 720x400 (1.80:1), 23.976 fps, XviD build 50 ~2217 kbps avg, 0.32 bit/pixel
Аудио: 48 kHz, AC3 Dolby Digital, 3/2 (L,C,R,l,r) + LFE ch, ~448 kbps

скриншот   скриншот   скриншот   скриншот  

Общее
Полное имя : H:\кино\Devils.Knot.2013.BDRip.avi
Формат : AVI
Формат/Информация : Audio Video Interleave
Профиль формата : OpenDML
Размер файла : 2,13 Гбайт
Продолжительность : 1 ч. 54 м.
Общий поток : 2673 Кбит/сек
Программа кодирования : VirtualDubMod 1.5.10.3 | www.virtualdub-fr.org || (build 2550/release)
Библиотека кодирования : VirtualDubMod build 2550/release

Видео
Идентификатор : 0
Формат : MPEG-4 Visual
Профиль формата : Advanced Simple@L5
Параметр BVOP формата : 2
Параметр QPel формата : Нет
Параметр GMC формата : Без точки перехода
Параметр матрицы формата : Default (H.263)
Идентификатор кодека : XVID
Идентификатор кодека/Подсказка : XviD
Продолжительность : 1 ч. 54 м.
Битрейт : 2213 Кбит/сек
Ширина : 720 пикселей
Высота : 400 пикселей
Соотношение сторон : 16:9
Частота кадров : 23,976 кадра/сек
Цветовое пространство : YUV
Субдискретизация насыщенности : 4:2:0
Битовая глубина : 8 бит
Тип развёртки : Прогрессивная
Метод сжатия : С потерями
Бит/(Пиксели*Кадры) : 0.320
Размер потока : 1,77 Гбайт (83%)
Библиотека кодирования : XviD 1.2.1 (UTC 2008-12-04)

Аудио
Идентификатор : 1
Формат : AC-3
Формат/Информация : Audio Coding 3
Расширение режима : CM (complete main)
Параметр Endianness формата : Big
Идентификатор кодека : 2000
Продолжительность : 1 ч. 54 м.
Вид битрейта : Постоянный
Битрейт : 448 Кбит/сек
Каналы : 6 каналов
Расположение каналов : Front: L C R, Side: L R, LFE
Частота : 48,0 КГц
Битовая глубина : 16 бит
Метод сжатия : С потерями
Размер потока : 366 Мбайт (17%)
Выравнивание : Разделение по промежуткам
Продолжительность промежутка : 42 мс. (1,00 видеокадр)
Время предзагрузки промежутка : 500 мс.

pb.wtf



Скачать Узел дьявола через торрент https://pic1.kartinco.top/images/61/b7vyn.jpg Скачать, смотреть онлайн Узел дьявола бесплантно в хорошем качестве Описание: Небольшой американский городок потрясен зверским убийством трех детей. Трех подростков обвиняют в этом злодеянии, всего лишь на ... 9.6 10 14
Торрент: Зарегистрирован [2014-06-12 17:24] · скачан: 228 раз
Статус: √ проверено
Размер: 2.13 GB
Как cкачать? Как скачать Узел дьявола через торрент | UTorrent

28-11-2019 20:33  

Отключить всю рекламу на сайте

    Дорогой пользователь! Огромная просьба, поблагодарите релизера, оцените раздачу и оставьте свои комментарий, если Вы скачали Узел дьявола через торрент бесплатно!
    Комментировать посты могут только пользователи прошедшие не сложную регистрацию
    Показать сообщения:    

    Узел дьявола через торрент
    Скачать бесплатно Узел дьявола
    Узел дьявола скачать торрент
    Узел дьявола смотреть онлайн
    Cкачать фильм Узел дьявола бесплатно
    Узел дьявола скачать торрент в хорошем качестве
    Узел дьявола смотреть онлайн бесплатно в хорошем качестве


    Вы не можете начинать темы
    Вы не можете отвечать на сообщения
    Вы не можете редактировать свои сообщения
    Вы не можете удалять свои сообщения
    Вы не можете голосовать в опросах
    Вы не можете прикреплять файлы к сообщениям
    Вы можете скачивать файлы