1 сезон

3 сезон

iTunes

1

Line

MVO

iTunes

13

1 сезон

RePack

30

Deluxe

pack

Лицензия

ВАЖНО

ИГРА 18+

pack

RePack

MK11

RePack

jed

RePack

fifa19

RePack

RDR2

RePack

NEED FOR SPEED™ PAYBACK

4 сезон

9 сезон

Бесстыжие 9 сезон

Все сериалы

все сериалы на PB.wtf

RePack

FAR CRY 5

Anonymous, добрый вечер, мы катастрофически не успеваем собрать деньги на оплату серверов, помогите нам пожалуйста 5,10,15р., для нас важна любая помощь . В качестве благодарности мы отключим Вам всю рекламу на сайте (укажите свой ник в строку Ваше имя)!

×
  
Magnet ссылка

План побега / Escape Plan (Микаэль Хофстрём / Mikael Håfström) [2013, боевик, триллер, детектив, DVD9] R5 pb.wtf

План побега через торрент pb.wtf

Размер: 5.49 GB | Добавлен: 7 лет 1 мес. назад | Торрент скачан:78 раз
Скачать  

12-06-2014 19:37 План побега Скачать торрент  


План побега / Escape Plan
«Из самой надежной тюрьмы в одиночку убежать невозможно»
Страна: США
Студия: Atmosphere Entertainment MM LLC, Boies/Schiller Film Group, Emmett/Furla Films, Envision Entertainment, Mark Canton Productions, Summit Entertainment
Жанр: боевик, триллер, детектив
Год выпуска: 2013
Мировая премьера: 18 июля 2013
Российская премьера: 17 октября 2013
Дата выхода DVD: 11 июня 2014
Дата выхода Blu-Ray: 11 июня 2014
Продолжительность: 01:50:52
Перевод: Профессиональный (дублированный) [Лицензия]
Cубтитры: нет
Оригинальная аудиодорожка: нет
Режиссер: Микаэль Хофстрём / Mikael Håfström
В ролях: Сильвестр Сталлоне, Арнольд Шварценеггер, Джеймс Кэвизел, Фифти Сент, Винни Джонс, Винсент Д’Онофрио, Эми Райан, Фаран Таир, Сэм Нил, Мэтт Джералд
Описание: Один из самых выдающихся мировых специалистов по системам безопасности соглашается на последнюю рисковую операцию: сбежать из суперсекретной высокотехнологичной тюрьмы, которую называют «Гробницей». Преданный Рэй Бреслин вынужден прибегнуть к помощи напарника — заключенного Эмиля Ротмайера, чтобы разработать отчаянный и практически неосуществимый план побега из самой защищенной тюрьмы в мире!

Бонусы: нет

Релиз группы:
Качество: DVD9 R5
Формат: DVD-Video
Видео кодек: MPEG2
Аудио кодек: AC3
Видео: PAL 16:9 (720x576(0.638)) MPEG Video, 25,000 кадр/сек, 6610 Кбит/сек
Аудио: Russian (Dolby AC3, 6 ch) 448 Кбит/сек, 48,0 КГц



Title: Plan.pobega.2013.DVD9
Size: 5.49 Gb ( 5 753 288,00 KBytes ) - DVD-9
Enabled regions: 1, 2, 3, 4, 5, 6, 7, 8

VTS_01 :
Play Length: 00:00:19
Video: PAL 4:3 (720x576) VBR
Audio:
Not specified (Dolby AC3, 2 ch)

VTS_02 :
Play Length: 00:00:15
Video: PAL 16:9 (720x576) VBR, Auto Letterboxed
Audio:
Not specified (Dolby AC3, 2 ch)

VTS_03 :
Play Length: 01:50:52
Video: PAL 16:9 (720x576) VBR, Auto Letterboxed
Audio:
Russian (Dolby AC3, 6 ch)

* Menus Information *

VIDEO_TS Menu
Video:
PAL 16:9 (720x576) VBR
Auto Pan&Scan, Auto Letterboxed
English Language Unit :
Title Menu

VTS_01 Menu
Video:
PAL 16:9 (720x576) VBR
Auto Letterboxed
Audio:
Not specified (Dolby AC3, 2 ch)
English Language Unit :
Root Menu

VTS_02 Menu
Video:
PAL 4:3 (720x576) VBR
English Language Unit :
Root Menu

VTS_03 Menu
Video:
PAL 4:3 (720x576) VBR
English Language Unit :
Root Menu
Общее
Полное имя : D:\Новинки 2014\Plan.pobega.2013.DVD9\VIDEO_TS\VTS_03_2.VOB
Формат : MPEG-PS
Размер файла : 1024 Мбайт
Продолжительность : 19 м.
Режим общего битрейта : Переменный
Общий поток : 7201 Кбит/сек

Видео
Идентификатор : 224 (0xE0)
Формат : MPEG Video
Версия формата : Version 2
Профиль формата : Main@Main
Параметр BVOP формата : Да
Параметр матрицы формата : По умолчанию
Параметр GOP формата : M=3, N=12
Продолжительность : 19 м.
Вид битрейта : Переменный
Битрейт : 6610 Кбит/сек
Максимальный битрейт : 8000 Кбит/сек
Ширина : 720 пикселей
Высота : 576 пикселей
Соотношение сторон : 16:9
Частота кадров : 25,000 кадров/сек
Стандарт вещания : PAL
Цветовое пространство : YUV
Субдискретизация насыщенности : 4:2:0
Битовая глубина : 8 бит
Тип развёртки : Прогрессивная
Метод сжатия : С потерями
Бит/(Пиксели*Кадры) : 0.638
Временной код первого кадра : 00:20:25:09
Оригинал временного кода : Group of pictures header
Размер потока : 940 Мбайт (92%)

Аудио
Идентификатор : 189 (0xBD)-128 (0x80)
Формат : AC-3
Формат/Информация : Audio Coding 3
Расширение режима : CM (complete main)
Параметр Endianness формата : Big
Режим смешивания : DVD-Video
Продолжительность : 19 м.
Вид битрейта : Постоянный
Битрейт : 448 Кбит/сек
Каналы : 6 каналов
Расположение каналов : Front: L C R, Side: L R, LFE
Частота : 48,0 КГц
Битовая глубина : 16 бит
Метод сжатия : С потерями
Задержка видео : -704 мс.
Размер потока : 63,7 Мбайт (6%)










pb.wtf



Скачать План побега через торрент http://i61.fastpic.ru/big/2014/0612/d6/0302d25d66dcd20af394f817b3bcdbd6.jpg Скачать фильм План побега через торрент бесплантно в хорошем качестве Описание: Один из самых выдающихся мировых специалистов по системам безопасности соглашается на последнюю рисковую операцию: сбежать из ... 10 10 5
Info! Серебряная раздача, засчитывается только 50% скачанного.
Торрент: Зарегистрирован [2014-06-12 19:37] · скачан: 78 раз
Статус: √ проверено
Размер: 5.49 GB
Как cкачать? Как скачать План побега через торрент | UTorrent

% Раздел Тема Автор DL S | L
Фильмы 2013 [DVDrip, WEB-DLRip, HDrip] [ 1.46 GB ] План побега / Escape Plan [2013 HDRip-AVC] ] От R.G. PiratFilms White Smoke Скачать
1 | 0
Зарубежные Мультфильмы (DVD) [ 5.98 GB ] Побег с планеты Земля / Escape from Planet Earth [2013 мультфильм DVD9] R5 voovaz Скачать
1 | 0

28-11-2019 20:33  

Отключить всю рекламу на сайте

    Дорогой пользователь! Огромная просьба, поблагодарите релизера, оцените раздачу и оставьте свои комментарий, если Вы скачали План побега через торрент бесплатно! Внесите свою лепту в развитие PiratBit!
    Комментировать посты могут только пользователи прошедшие не сложную регистрацию
    Показать сообщения:    

    План побега через торрент
    Скачать бесплатно План побега
    План побега скачать торрент
    План побега смотреть онлайн
    Cкачать фильм План побега бесплатно
    План побега скачать торрент в хорошем качестве
    План побега смотреть онлайн бесплатно в хорошем качестве


    Вы не можете начинать темы
    Вы не можете отвечать на сообщения
    Вы не можете редактировать свои сообщения
    Вы не можете удалять свои сообщения
    Вы не можете голосовать в опросах
    Вы не можете прикреплять файлы к сообщениям
    Вы можете скачивать файлы