Ссылка на приватное зеркало нашего сайта всего за 1$. Внимание количество ограничено!!!

2 сезон

iTunes

1 сезон

1

2 сезон

2 сезон

iTunes

1 сезон

RePack

30

Новинка

ВАЖНО

ИГРА 18+

pack

RePack

MK11
pack

Забери бонус

RePack

jed

!!Акция!!

Alien_Rage

RePack

fifa19

RePack

Assassins Creed: Odyssey

RePack

NEED FOR SPEED™ PAYBACK

4 сезон

9 сезон

Бесстыжие 9 сезон

Все сериалы

все сериалы на PB.wtf

RePack

FAR CRY 5
  

Нижний этаж / Ground Floor / Сезон: 1 / Серии 1-10 из 10 (Гэйл Манкусо / Gail Mancuso) [ 2013 , США , комедия , WEB-DLRip ] MVO (ViruseProject) pb.wtf

Нижний этаж через торрент pb.wtf

Размер: 3.05 GB | Добавлен: 6 лет 5 мес. назад | Торрент скачан:68 раз
Скачать  

13-06-2014 02:30 Нижний этаж Скачать торрент  

Нижний этаж / Ground Floor«Bringing work home can be awkward»
Год выпуска: 2013
Страна: США
Жанр: комедия
Продолжительность: ~00:24:00 (Серия)
Перевод: Любительский(многоголосый, закадровый)(ViruseProject)
Субтитры: Нет
Режиссер: Гэйл Манкусо / Gail Mancuso
Сценарий: Билл Лоуренс / Bill Lawrence, Дженни Ли / Jenny Lee, Грег Мэлинс / Greg Malins, Даниэль Уларик / Danielle Uhlarik, Джефф Астроф / Jeff Astrof
Продюсер: Брайан Фергюсон / Brian Ferguson, Майк Шифф / Mike Schiff, Грег Мэлинс / Greg Malins, Джефф Инголд / Jeff Ingold, Билл Лоуренс / Bill Lawrence
Оператор: Дональд А. Морган / Donald A. Morgan, Робин Стриклэнд / Robin Strickland, Грегг Хешонг / Gregg Heschong
Композитор: Грегг Лерман / Gregg Lehrman
В ролях:
Скайлар Эстин (Brody), Брига Хилэн (Jennifer), Rory Scovel (Harvard), Рене Губе (Threepeat), Джеймс Эрл (Derrick), Алексис Нэп (Tori), Джон К. МакГинли (Mr. Mansfield), Bryce McBratnie (Kyle), Анна Кэмп (Heather), Кристофер Грэй (Cop), Qualiema Greene (Lucy), Джон МакИнрой (играет самого себя)
Мировая премьера: 14 ноября 2013
Описание:
Новый комедийный сериал от режиссера "Друзья", "Клиника", "Американская семейка", "Пригород" и др., который рассказывает о молодом и успешном банкире Броуди, который работает в компании Whitestone Trust. Броуди провел одну ночь с Дженнифер, а потом обнаружил, что она работает в службе обслуживания здания, где располагается его компания. С этого момента им приходится справляться с растущей взаимной симпатией, к большому раздражению сослуживцев.
Рейтинг
kinopoisk.ru: 6.944 (183)
imdb.com: 7.40 (1797)
Качество: WEB-DLRip
Формат: AVI
Видео кодек: XviD
Аудио кодек: MP3
Видео: 1491 Кбит/сек, 720*400 (16:9), в 23,976 кадра/сек, MPEG-4 Visual (XviD)
Аудио: 192 Кбит/сек, 48,0 КГц, 2 канала, MPEG Audio (MP3)
Общее
Полное имя : H:\ТОРРЕНТЫ\Нижний этаж (Сезон 1)\Ground.Floor.S01E01..avi
Формат : AVI
Формат/Информация : Audio Video Interleave
Размер файла : 319 Мбайт
Продолжительность : 26 м.
Общий поток : 1692 Кбит/сек
Программа кодирования : VirtualDubMod 1.5.10.2 (build 2540/release)
Библиотека кодирования : VirtualDubMod build 2540/release

Видео
Идентификатор : 0
Формат : MPEG-4 Visual
Профиль формата : Advanced Simple@L5
Параметр BVOP формата : 1
Параметр QPel формата : Нет
Параметр GMC формата : Без точки перехода
Параметр матрицы формата : Default (MPEG)
Идентификатор кодека : XVID
Идентификатор кодека/Подсказка : XviD
Продолжительность : 26 м.
Битрейт : 1491 Кбит/сек
Ширина : 720 пикселей
Высота : 400 пикселей
Соотношение сторон : 16:9
Частота кадров : 23,976 кадра/сек
Цветовое пространство : YUV
Субдискретизация насыщенности : 4:2:0
Битовая глубина : 8 бит
Тип развёртки : Прогрессивная
Метод сжатия : С потерями
Бит/(Пиксели*Кадры) : 0.216
Размер потока : 281 Мбайт (88%)
Библиотека кодирования : XviD 1.2.1 (UTC 2008-12-04)

Аудио
Идентификатор : 1
Формат : MPEG Audio
Версия формата : Version 1
Профиль формата : Layer 3
Идентификатор кодека : 55
Идентификатор кодека/Подсказка : MP3
Продолжительность : 26 м.
Вид битрейта : Постоянный
Битрейт : 192 Кбит/сек
Каналы : 2 канала
Частота : 48,0 КГц
Метод сжатия : С потерями
Размер потока : 36,1 Мбайт (11%)
Выравнивание : Разделение по промежуткам
Продолжительность промежутка : 42 мс. (1,00 видеокадр)
Время предзагрузки промежутка : 500 мс.

скриншот   скриншот   скриншот   скриншот   скриншот   скриншот   скриншот   скриншот   скриншот   скриншот  

pb.wtf



Скачать Нижний этаж через торрент http://pic.kartinco.top/images/6/agfdk.jpg Скачать фильм Нижний этаж через торрент бесплантно в хорошем качестве Описание:Новый комедийный сериал от режиссера "Друзья", "Клиника", "Американская семейка", "Пригород" и др., который рассказывает о молодом ... 7.8 10 4
Info! Золотая раздача, скачанное не засчитывается.
Торрент: Зарегистрирован [2014-06-13 02:30] · скачан: 68 раз
Статус: √ проверено
Размер: 3.05 GB
Как cкачать? Как скачать Нижний этаж через торрент | qTorrent

% Раздел Тема Автор DL S | L
Зарубежные сериалы [ 3.15 GB ] Нижний этаж / Ground Floor / Сезон: 2 / Серии 1-10 из 10 [2014-2015 HDTVRip] MVO [Viruse Project] GEKADOL Скачать
1 | 0

28-11-2019 20:33  

Отключить всю рекламу на сайте

    Дорогой пользователь! Огромная просьба, поблагодарите релизера, оцените раздачу и оставьте свои комментарий, если Вы скачали Нижний этаж через торрент бесплатно! Внесите свою лепту в развитие PiratBit!
    Комментировать посты могут только пользователи прошедшие не сложную регистрацию
    Показать сообщения:    

    Нижний этаж через торрент
    Скачать бесплатно Нижний этаж
    Нижний этаж скачать торрент
    Нижний этаж смотреть онлайн
    Cкачать фильм Нижний этаж бесплатно
    Нижний этаж скачать торрент в хорошем качестве
    Нижний этаж смотреть онлайн бесплатно в хорошем качестве


    Вы не можете начинать темы
    Вы не можете отвечать на сообщения
    Вы не можете редактировать свои сообщения
    Вы не можете удалять свои сообщения
    Вы не можете голосовать в опросах
    Вы не можете прикреплять файлы к сообщениям
    Вы можете скачивать файлы