новый адрес
Ссылка на приватное зеркало всего за 1$. Внимание количество ограничено!!!

iTunes

1+1

iTunes

мы

WEB-DL

1

iTunes

Чернобыль

iTunes

Ральф против интернета

Лицензия

ПШазам

Лицензия

Оно 2

Лицензия

30
pack

Вам бонус

ВАЖНО

!!Акция!!

Alien_RageХит недели

RePack

Resident Evil 21

ИГРА 18+

pack

RePack

jed

!!Акция!!

Alien_Rage

RePack

fifa19

RePack

Assassins Creed: Odyssey

RePack

NEED FOR SPEED™ PAYBACK

3 сезон

9 сезон

Бесстыжие 9 сезон

Все сериалы

все сериалы на PB.wtf

RePack

FAR CRY 5
Ребята, катастрофически не хватает 1900р. для оплаты серверов за Октябрь (всвязи с блокировками трафик упал в 3 раза), 1-2р., выручайте.
  

Венера в мехах / La Vénus à la fourrure (Роман Полански) [2013 г., драма, HDRip, Дубляж, Чистый звук] pb.wtf

Венера в мехах через торрент pb.wtf

Размер: 2.15 GB | Добавлен: 5 лет 5 мес. назад | Торрент скачан:238 раз
Скачать  

13-06-2014 13:33 Венера в мехах Скачать торрент  

Венера в мехах / La Vénus à la fourrure Год выпуска: 2013
Страна: Франция, Польша / R.P. Productions, A.S. Films, Monolith Films
Жанр: драма
Продолжительность: 01:35:41
Перевод: Дубляж (Чистый звук)

Режиссер: Роман Полански

В ролях: Эмманюэль Сенье,Матье Амальрик

Описание: Весь день Тома проводил прослушивания, выбирая актрису для пьесы по знаменитому роману Леопольда фон Захера-Мазоха «Венера в мехах». Режиссер в отчаянии, пока не появляется Ванда — настоящий сгусток энергии, разнузданная и развязная. Она воплощает собой все, что Тома ненавидит: вульгарна, взбалмошна и не остановится ни перед чем, чтобы получить роль. Вдруг все, что так ненавидит Тома, начинает ему нравиться — актриса отлично подготовилась к прослушиванию. Удивление сменяется влечением, а затем и одержимостью этой женщиной

Качество: HDRip
Формат: AVI
Видео кодек: XviD
Аудио кодек: AC3
Видео: 720x304 (2.37:1), 23.976 fps, XviD build 50 ~2754 kbps avg, 0.53 bit/pixel
Аудио: 48 kHz, AC3 Dolby Digital, 3/2 (L,C,R,l,r) + LFE ch, ~448 kbps

скриншот   скриншот   скриншот   скриншот  

Общее
Полное имя : H:\кино\Venus.in.Fur.2013.HDRip.avi
Формат : AVI
Формат/Информация : Audio Video Interleave
Профиль формата : OpenDML
Размер файла : 2,15 Гбайт
Продолжительность : 1 ч. 35 м.
Общий поток : 3209 Кбит/сек
Программа кодирования : VirtualDubMod 1.5.10.3 | www.virtualdub-fr.org || (build 2550/release)
Библиотека кодирования : VirtualDubMod build 2550/release

Видео
Идентификатор : 0
Формат : MPEG-4 Visual
Профиль формата : Advanced Simple@L5
Параметр BVOP формата : 2
Параметр QPel формата : Нет
Параметр GMC формата : Без точки перехода
Параметр матрицы формата : Default (H.263)
Идентификатор кодека : XVID
Идентификатор кодека/Подсказка : XviD
Продолжительность : 1 ч. 35 м.
Битрейт : 2749 Кбит/сек
Ширина : 720 пикселей
Высота : 304 пикселя
Соотношение сторон : 2,35:1
Частота кадров : 23,976 кадра/сек
Цветовое пространство : YUV
Субдискретизация насыщенности : 4:2:0
Битовая глубина : 8 бит
Тип развёртки : Прогрессивная
Метод сжатия : С потерями
Бит/(Пиксели*Кадры) : 0.524
Размер потока : 1,84 Гбайт (86%)
Библиотека кодирования : XviD 1.2.1 (UTC 2008-12-04)

Аудио
Идентификатор : 1
Формат : AC-3
Формат/Информация : Audio Coding 3
Расширение режима : CM (complete main)
Параметр Endianness формата : Big
Идентификатор кодека : 2000
Продолжительность : 1 ч. 35 м.
Вид битрейта : Постоянный
Битрейт : 448 Кбит/сек
Каналы : 6 каналов
Расположение каналов : Front: L C R, Side: L R, LFE
Частота : 48,0 КГц
Битовая глубина : 16 бит
Метод сжатия : С потерями
Размер потока : 307 Мбайт (14%)
Выравнивание : Разделение по промежуткам
Продолжительность промежутка : 42 мс. (1,00 видеокадр)
Время предзагрузки промежутка : 500 мс.

pb.wtf



Скачать Венера в мехах через торрент http://pic.kartinco.top/images/6/k8jid.jpg Скачать фильм Венера в мехах через торрент бесплантно в хорошем качестве Описание: Весь день Тома проводил прослушивания, выбирая актрису для пьесы по знаменитому роману Леопольда фон Захера-Мазоха «Венера в ... 10 10 8
Info! Золотая раздача, скачанное не засчитывается.
Торрент: Зарегистрирован [2014-06-13 13:33] · скачан: 238 раз
Статус: T временная
Размер: 2.15 GB
Как cкачать? Как скачать Венера в мехах через торрент | qTorrent

% Раздел Тема Автор DL S | L
T Арт-хаус и авторское кино [ 1.37 GB ] Венера в мехах / La Vénus à la fourrure [2013 HDRip] diletant Скачать
2 | 0
Фильмы с авторской озвучкой [ 1.46 GB ] Венера в мехах / La Vénus à la fourrure [2013 Польша HDRipАвторский Ворон Скачать
1 | 0

28-11-2019 20:33  

Отключить всю рекламу на сайте

13-06-2014 15:29 Венера в мехах Скачать торрент  

coc900 писал(а):

[qpost=undefined]2754 kbps avg

нельзя так делать с XviD-ом максималка 2300 не больше !!!!
1000% не совместимость с обыкновенным бытовым двд
да еще + к этому стандартная матрица (H.263) я бы посоветовал хотя бы юзать MPEG или его модификацииpb.wtf



13-06-2014 16:02 Венера в мехах Скачать торрент  

deadmauVlad,Проверял на своем обычном плеере с флешки,все показывает нормально и без тормозовpb.wtf



27-07-2014 19:33 Венера в мехах Скачать торрент  

фильм отличный
но, если вы не хотите смотреть 1,5 часа диалога в закрытом помещении, то не качайтеpb.wtf



    Дорогой пользователь! Огромная просьба, поблагодарите релизера, оцените раздачу и оставьте свои комментарий, если Вы скачали Венера в мехах через торрент бесплатно! Внесите свою лепту в развитие PiratBit!
    Комментировать посты могут только пользователи прошедшие не сложную регистрацию
    Показать сообщения:    

    Венера в мехах через торрент
    Скачать бесплатно Венера в мехах
    Венера в мехах скачать торрент
    Венера в мехах смотреть онлайн
    Cкачать фильм Венера в мехах бесплатно
    Венера в мехах скачать торрент в хорошем качестве
    Венера в мехах смотреть онлайн бесплатно в хорошем качестве


    Вы не можете начинать темы
    Вы не можете отвечать на сообщения
    Вы не можете редактировать свои сообщения
    Вы не можете удалять свои сообщения
    Вы не можете голосовать в опросах
    Вы не можете прикреплять файлы к сообщениям
    Вы можете скачивать файлы