Мега распродажа FORZA HORIZON 4 ULTIMATE+ВСЕ DLC+ОНЛАЙН всего за 499р. 349 руб. (супер цена). Внимание количество ограничено!!!

iTunes

1+1

iTunes

мы

iTunes

1

1 сезон

Чернобыль

1 сезон

Ральф против интернета

Лицензия

ПШазам

8 сезон

Игра престолов

Лицензия

30
pack

ВАЖНО

!!Акция!!

Alien_RageХит недели

RePack

Resident Evil 21

ИГРА 18+

pack

RePack

Metro:Exodus

!!Акция!!

Alien_Rage

RePack

fifa19

RePack

Assassins Creed: Odyssey

RePack

NEED FOR SPEED™ PAYBACK

3 сезон

9 сезон

Бесстыжие 9 сезон

Все сериалы

все сериалы на PB.wtf

RePack

FAR CRY 5
Ребята, катастрофически не хватает 2730р. для оплаты серверов за ИЮНЬ (всвязи с блокировками трафик упал в 3 раза), 1-2р., выручайте.
  

Кто-то теряет, кто-то находит / Серия 1-4 из 4 (Илья Хотиненко) [2014 г., мелодрама, SATRip] pb.wtf

Кто-то теряет, кто-то находит через торрент pb.wtf

Размер: 2.05 GB | Добавлен: 5 лет 1 мес. назад | Торрент скачан:208 раз
Скачать  

13-06-2014 14:23 Кто-то теряет, кто-то находит Скачать торрент  

Кто-то теряет кто-то находит Год выпуска: 2014
Страна: Россия
Жанр: мелодрама
Продолжительность: 4 х 45 минут

Режиссер: Илья Хотиненко

В ролях: Мария Порошина, Ярослав Бойко, Ольга Штыркова, Янина Соколовская (III), Тимур Савин, Сергей Паршин

Описание: Новогодняя сказочная история, которая произошла между пожарным и работницей бюро находок. В канун Нового года Мария случайно знакомится с Климом и, разумеется, влюбляется в него...

Качество: SATRip
Формат: AVI
Видео кодек: DivX
Аудио кодек: MP3
Видео: MPEG4, DivX 5, 720x384 (1.875), 25.000 fps, 1 600 Kbps (0.231 bit/pixel)
Аудио: MP3, 48.0 KHz, 2 ch, 128 Kbps, CBR
скриншот   скриншот   скриншот   скриншот   скриншот   скриншот   скриншот   скриншот  

Код:

Формат                                   : AVI
Формат/Информация                        : Audio Video Interleave
Размер файла                             : 532 Мбайт
Продолжительность                        : 42 м.
Общий поток                              : 1737 Кбит/сек
Программа кодирования                    : VirtualDubMod 1.5.10.2 (build 2540/release)
Библиотека кодирования                   : VirtualDub build 29808/release

Видео
Идентификатор                            : 0
Формат                                   : MPEG-4 Visual
Параметр BVOP формата                    : Нет
Параметр QPel формата                    : Нет
Параметр GMC формата                     : Без точки перехода
Параметр матрицы формата                 : Default (H.263)
Идентификатор кодека                     : DX50
Идентификатор кодека/Подсказка           : DivX 5
Продолжительность                        : 42 м.
Битрейт                                  : 1600 Кбит/сек
Ширина                                   : 720 пикселей
Высота                                   : 384 пикселя
Соотношение сторон                       : 1,85:1
Частота кадров                           : 25,000 кадров/сек
Цветовое пространство                    : YUV
Субдискретизация насыщенности            : 4:2:0
Битовая глубина                          : 8 бит
Тип развёртки                            : Прогрессивная
Метод сжатия                             : С потерями
Бит/(Пиксели*Кадры)                      : 0.231
Размер потока                            : 490 Мбайт (92%)
Библиотека кодирования                   : DivX 6.8.5 (UTC 2009-08-20)

Аудио
Идентификатор                            : 1
Формат                                   : MPEG Audio
Версия формата                           : Version 1
Профиль формата                          : Layer 3
Режим                                    : Joint stereo
Идентификатор кодека                     : 55
Идентификатор кодека/Подсказка           : MP3
Продолжительность                        : 42 м.
Вид битрейта                             : Постоянный
Битрейт                                  : 128 Кбит/сек
Каналы                                   : 2 канала
Частота                                  : 48,0 КГц
Метод сжатия                             : С потерями
Размер потока                            : 39,2 Мбайт (7%)
Выравнивание                             : Соединение по промежуткам
Продолжительность промежутка             : 40  мс. (1,00 видеокадр)
Время предзагрузки промежутка            : 504  мс.


pb.wtf



Скачать Кто-то теряет, кто-то находит через торрент http://pic.kartinco.top/new/img/2014-06/13/odu2kb9mb5sgmd5dpji4tritz.jpg Скачать фильм Кто-то теряет, кто-то находит через торрент бесплантно в хорошем качестве Описание: Новогодняя сказочная история, которая произошла между пожарным и работницей бюро находок. В канун Нового года Мария случайно ... 10 10 3
Info! Золотая раздача, скачанное не засчитывается.
Торрент: Зарегистрирован [2014-06-13 14:23] · скачан: 208 раз
Статус: √ проверено
Размер: 2.05 GB
Как cкачать? Как скачать Кто-то теряет, кто-то находит через торрент | qTorrent


>> Регистрируемся здесь <<






Отзывы и комментарии о схеме читаем и пишем здесь: ---> Отзывы и комментарии о схеме

Новые благодарочки в телеграм довольных пользователей:
скриншот   скриншот   скриншот   скриншот   скриншот
    Дорогой пользователь! Огромная просьба, поблагодарите релизера, оцените раздачу и оставьте свои комментарий, если Вы скачали Кто-то теряет, кто-то находит через торрент бесплатно! Внесите свою лепту в развитие PiratBit!
    Комментировать посты могут только пользователи прошедшие не сложную регистрацию
    Показать сообщения:    

    Кто-то теряет, кто-то находит через торрент
    Скачать бесплатно Кто-то теряет, кто-то находит
    Кто-то теряет, кто-то находит скачать торрент
    Кто-то теряет, кто-то находит смотреть онлайн
    Cкачать фильм Кто-то теряет, кто-то находит бесплатно
    Кто-то теряет, кто-то находит скачать торрент в хорошем качестве
    Кто-то теряет, кто-то находит смотреть онлайн бесплатно в хорошем качестве


    Вы не можете начинать темы
    Вы не можете отвечать на сообщения
    Вы не можете редактировать свои сообщения
    Вы не можете удалять свои сообщения
    Вы не можете голосовать в опросах
    Вы не можете прикреплять файлы к сообщениям
    Вы можете скачивать файлы