Мега распродажа FORZA HORIZON 4 ULTIMATE+ВСЕ DLC+ОНЛАЙН всего за 499р. 349 руб. (супер цена). Внимание количество ограничено!!!

iTunes

1+1

iTunes

мы

iTunes

1

1 сезон

Чернобыль

1 сезон

Ральф против интернета

Лицензия

ПШазам

8 сезон

Игра престолов

Лицензия

30
pack

ВАЖНО

!!Акция!!

Alien_RageХит недели

RePack

Resident Evil 21

ИГРА 18+

pack

RePack

Metro:Exodus

!!Акция!!

Alien_Rage

RePack

fifa19

RePack

Assassins Creed: Odyssey

RePack

NEED FOR SPEED™ PAYBACK

3 сезон

9 сезон

Бесстыжие 9 сезон

Все сериалы

все сериалы на PB.wtf

RePack

FAR CRY 5
Ребята, катастрофически не хватает 2730р. для оплаты серверов за ИЮНЬ (всвязи с блокировками трафик упал в 3 раза), 1-2р., выручайте.
  

Королева игры / Серии:1-28 из 28 (Роман Ярославцев, Константин Таран) [2014 г., Мелодрама, драма, SATRip] pb.wtf

Королева игры через торрент pb.wtf

Размер: 17.88 GB | Добавлен: 5 лет 1 мес. назад | Торрент скачан:246 раз
Скачать  

13-06-2014 21:17 Королева игры Скачать торрент  

Королева игры
Год выпуска: 2014
Страна: Россия Украина «Дуэт» по идее SBS (Queen of the Game)
Жанр: Мелодрама, драма
Продолжительность: 28 х ~ 00:52:30

Режиссер: Роман Ярославцев, Константин Таран
Продюссер: Александр Левин, Нонна Агаджанова
Сценарий: Арам Яврумян, Нонна Агаджанова

Премьера в мире: 19 мая 2014

В ролях: Янина Соколовская, Михаил Полосухин, Надежда Бахтина, Вахтанг Беридзе, Мила Август, Алексей Кондрахов, Анна Данькова, Александр Кузнецов, Лилия Кондрова, Александр Дзюба, Лариса Баранова (II), Павел Григорьев, Игорь Карташёв, Алексей Лонгин, Полина Одинцова, Трофим Пихтулов

Описание: Ровно двадцать лет назад отец Анны, будучи еще начинающим бизнесменом, путем махинаций отнял гостиницу у отца Сергея и лишил его бизнеса, состояния и смысла жизни. Сергей, семи лет от роду, совершенно случайно стал свидетелем этого унижения и все последующие годы он лелеял только одну мечту - отомстить. Сергей хочет нанести отцу Анны смертельный удар, понимая, что сможет это сделать только через его любимую, единственную дочь. Но не все так просто. Влюбив Анну в себя, Сергей сам влюбляется в нее, и теперь перед ним стоит нелегкий выбор - идти до конца в своих намерениях отомстить или выбрать любовь Анны и отступить.

Качество: SATRip
Формат: AVI
Видео кодек: XviD
Аудио кодек: MP3
Видео: Xvid 720x400, 25000fps, 1 510 Kbps
Аудио: MP3, 48000Hz, stereo, 192kbps
Релиз от: simkanetua






General
Format : AVI
Format/Info : Audio Video Interleave
File size : 651 MiB
Duration : 51mn 5s
Overall bit rate : 1 782 Kbps
Writing application : VirtualDubMod 1.5.10.3 | (build 2550/release)
Writing library : VirtualDubMod build 2550/release

Video
ID : 0
Format : MPEG-4 Visual
Codec ID : XVID
Codec ID/Hint : XviD
Duration : 51mn 5s
Bit rate : 1 510 Kbps
Width : 720 pixels
Height : 400 pixels
Display aspect ratio : 16:9
Frame rate : 25.000 fps
Color space : YUV
Chroma subsampling : 4:2:0
Compression mode : Lossy
Bits/(Pixel*Frame) : 0.210
Stream size : 552 MiB (85%)

Audio
ID : 1
Format : MPEG Audio
Codec ID : 55
Codec ID/Hint : MP3
Duration : 51mn 5s
Bit rate : 192 Kbps
Channel(s) : 2 channels
Sampling rate : 48.0 KHz
Compression mode : Lossy
Stream size : 70.2 MiB (11%)
Alignment : Aligned on interleaves

pb.wtf



Скачать Королева игры через торрент http://pic.kartinco.top/images/6/a2qp9.jpg Скачать фильм Королева игры через торрент бесплантно в хорошем качестве Описание: Ровно двадцать лет назад отец Анны, будучи еще начинающим бизнесменом, путем махинаций отнял гостиницу у отца Сергея и лишил его ... 9.6 10 12
Info! Золотая раздача, скачанное не засчитывается.
Торрент: Зарегистрирован [2014-06-13 21:17] · скачан: 246 раз
Статус: √ проверено
Размер: 17.88 GB
Как cкачать? Как скачать Королева игры через торрент | qTorrent


>> Регистрируемся здесь <<






Отзывы и комментарии о схеме читаем и пишем здесь: ---> Отзывы и комментарии о схеме

Новые благодарочки в телеграм довольных пользователей:
скриншот   скриншот   скриншот   скриншот   скриншот
    Дорогой пользователь! Огромная просьба, поблагодарите релизера, оцените раздачу и оставьте свои комментарий, если Вы скачали Королева игры через торрент бесплатно! Внесите свою лепту в развитие PiratBit!
    Комментировать посты могут только пользователи прошедшие не сложную регистрацию
    Показать сообщения:    

    Королева игры через торрент
    Скачать бесплатно Королева игры
    Королева игры скачать торрент
    Королева игры смотреть онлайн
    Cкачать фильм Королева игры бесплатно
    Королева игры скачать торрент в хорошем качестве
    Королева игры смотреть онлайн бесплатно в хорошем качестве


    Вы не можете начинать темы
    Вы не можете отвечать на сообщения
    Вы не можете редактировать свои сообщения
    Вы не можете удалять свои сообщения
    Вы не можете голосовать в опросах
    Вы не можете прикреплять файлы к сообщениям
    Вы можете скачивать файлы