1 сезон

1 сезон

iTunes

1

КиноПоиск HD

Кинопоиск HD

iTunes

13

1 сезон

RePack

30

Ultimate

ВАЖНО

ИГРА 18+

pack

RePack

MK11
pack

Легкие деньги

RePack

jed

RePack

fifa19

RePack

RDR2

RePack

NEED FOR SPEED™ PAYBACK

4 сезон

9 сезон

Бесстыжие 9 сезон

Все сериалы

все сериалы на PB.wtf

RePack

FAR CRY 5
  
Magnet ссылка

25-й час / 25th Hour (Спайк Ли) [2002 г., драма, криминал, WEB-DLRip, Профессиональный Многоголосый закадровый, iTunes Russia] от R.G. PiratFilms pb.wtf

25-й час через торрент pb.wtf

Размер: 2.18 GB | Добавлен: 6 лет 9 мес. назад | Торрент скачан:54 раза
Скачать  

14-06-2014 13:56 25-й час Скачать торрент  

25-й час / 25th Hour

Год выпуска: 2002
Страна: США
Производство: 25th Hour Productions, 40 Acres & a Mule Filmworks, Gamut Films, Industry Entertainment, Touchstone Pictures
Жанр: драма, криминал
Продолжительность: 02:14:44
Перевод: Профессиональный многоголосый |iTunes Russia|

Режиссер: Спайк Ли
Продюссер: Джулия Чэсмэн, Джон Килик, Спайк Ли
Сценарий: Дэвид Бениофф
Бюджет: $5 000 000
Премьера в мире: 16 декабря 2002

IMDB 7.70 (129 676)


В ролях: Эдвард Нортон, Филип Сеймур Хоффман, Барри Пеппер, Розарио Доусон, Анна Пэкуин, Брайан Кокс, Тони Сирагуса, Леван Учанейшвили, Тони Девон, Миша Кузнецов

Описание: В фильме описывается последний день свободной жизни молодого бруклинца Монти Брогана (Эдвард Нортон), осужденного на семь лет тюрьмы за торговлю наркотиками. Оставшиеся 24 часа он проводит в компании своих родных, друзей, деловых партнеров и любимой девушки Натурель.Монти, мечтавший в свое время стать пожарным, но в итоге ступивший на роковую стезю наркодилера, прощается с прошлым и пытается переосмыслить свою жизнь...



Качество: WEB-DLRip
Формат: AVI
Видео кодек: XviD
Аудио кодек: AC3
Видео: MPEG4, XviD, 720x304 (2.35:1), 23.976 fps, 1 917 Kbps (0.365 bit/pixel)
Аудио: AC-3, 48.0 KHz, 6 ch, 384 Kbps, CBR (Russian)
General
Complete name : /home/sb753/files/25th.Hour.2002.WEB-DLRip.kep.avi
Format : AVI
Format/Info : Audio Video Interleave
Format profile : OpenDML
File size : 2.18 GiB
Duration : 2h 14mn
Overall bit rate : 2 313 Kbps
Writing application : VirtualDubMod 1.5.10.3 | www.virtualdub-fr.org || (build 2550/release)
Comment : Rip ot kep

Video
ID : 0
Format : MPEG-4 Visual
Format profile : Advanced Simple@L5
Format settings, BVOP : 4
Format settings, QPel : No
Format settings, GMC : No warppoints
Format settings, Matrix : Default (H.263)
Codec ID : XVID
Codec ID/Hint : XviD
Duration : 2h 14mn
Bit rate : 1 917 Kbps
Width : 720 pixels
Height : 304 pixels
Display aspect ratio : 2.35:1
Frame rate : 23.976 fps
Color space : YUV
Chroma subsampling : 4:2:0
Bit depth : 8 bits
Scan type : Progressive
Compression mode : Lossy
Bits/(Pixel*Frame) : 0.365
Stream size : 1.80 GiB (83%)
Writing library : XviD 1.2.1 (UTC 2008-12-04)

Audio
ID : 1
Format : AC-3
Format/Info : Audio Coding 3
Mode extension : CM (complete main)
Format settings, Endianness : Big
Codec ID : 2000
Duration : 2h 14mn
Bit rate mode : Constant
Bit rate : 384 Kbps
Channel(s) : 6 channels
Channel positions : Front: L C R, Side: L R, LFE
Sampling rate : 48.0 KHz
Bit depth : 16 bits
Compression mode : Lossy
Stream size : 370 MiB (17%)
Alignment : Split accross interleaves
Interleave, duration : 42 ms (1.00 video frame)
Interleave, preload duration : 500 ms
Сэмпл / Трейлер pb.wtf



Скачать 25-й час через торрент http://5.firepic.org/5/images/2014-06/14/h0tvgo3xbive.png Скачать фильм 25-й час через торрент бесплантно в хорошем качестве Описание: В фильме описывается последний день свободной жизни молодого бруклинца Монти Брогана (Эдвард Нортон), осужденного на семь лет ... 10 10 5
Info! Золотая раздача, скачанное не засчитывается.
Торрент: Зарегистрирован [2014-06-14 13:56] · скачан: 54 раз
Статус: √ проверено
Размер: 2.18 GB
Как cкачать? Как скачать 25-й час через торрент | UTorrent

28-11-2019 20:33  

Отключить всю рекламу на сайте

    Дорогой пользователь! Огромная просьба, поблагодарите релизера, оцените раздачу и оставьте свои комментарий, если Вы скачали 25-й час через торрент бесплатно! Внесите свою лепту в развитие PiratBit!
    Комментировать посты могут только пользователи прошедшие не сложную регистрацию
    Показать сообщения:    

    25-й час через торрент
    Скачать бесплатно 25-й час
    25-й час скачать торрент
    25-й час смотреть онлайн
    Cкачать фильм 25-й час бесплатно
    25-й час скачать торрент в хорошем качестве
    25-й час смотреть онлайн бесплатно в хорошем качестве


    Вы не можете начинать темы
    Вы не можете отвечать на сообщения
    Вы не можете редактировать свои сообщения
    Вы не можете удалять свои сообщения
    Вы не можете голосовать в опросах
    Вы не можете прикреплять файлы к сообщениям
    Вы можете скачивать файлы