Ссылка на приватное зеркало всего за 1$. Внимание количество ограничено!!!

iTunes

iTunes

iTunes

1

iTunes

iTunes

iTunes

iTunes

iTunes

30
pack

$ от Little Big

ВАЖНО

!!Акция!!

Alien_RageХит недели

RePack

Resident Evil 21

ИГРА 18+

pack

RePack

jed

!!Акция!!

Alien_Rage

RePack

fifa19

RePack

Assassins Creed: Odyssey

RePack

NEED FOR SPEED™ PAYBACK

4 сезон

9 сезон

Бесстыжие 9 сезон

Все сериалы

все сериалы на PB.wtf

RePack

FAR CRY 5
  

Самки / Alpha Girls: A Satanic Sorority Slasher (Тони Тров, Джони Зито) [2013 г., ужасы, триллер, мистика, WEB-DLRip 720p, Любительский двухголосый] pb.wtf

Самки через торрент pb.wtf

Размер: 2.62 GB | Добавлен: 6 лет назад | Торрент скачан:96 раз
Скачать  

14-06-2014 21:29 Самки Скачать торрент  

Самки / Alpha Girls: A Satanic Sorority Slasher
Год выпуска: 2013
Страна: США
Жанр: ужасы, триллер, мистика
Продолжительность: 01:26:45
Перевод: Любительский двухголосый[DeadSno & den904]

Режиссер: Тони Тров, Джони Зито



В ролях: Никки Белл, Николь Синалья, Кристина Фишлер, Виктор Дженнаро, Виктория Гатри, Рон Джереми, Фэлон Паттани, Алисса Кемпински

Описание: Морган переводится в другой колледж из-за личных проблем, повлиявших на ее обучение. Сама того не зная, она оказывается наследницей дома, в котором обитает девичье студенческое общество "АльфаБета". Девушка волей-не волей придется подвергнуться жестоким издевательствам, являющихся неотъмлемой частию инициации всех подобных сообществ, но дальше - больше... постепенно Морган начинает понимать, что АльфаБета - это ничто иное, как сатанинский культ...

Качество: WEB-DLRip 720p
Формат: MKV
Видео кодек: XviD
Аудио кодек: AC3
Видео: 1280x720, 3666 kb/s, 23,976 fps, bpp 0.166
Аудио#1: Русский: AC3, 192 kb/s (2 ch)
Аудио#2: Английский: AC3, 384 kb/s (6 ch)
скриншот   скриншот   скриншот   скриншот   скриншот   скриншот  
Общее
Уникальный идентификатор : 246560877823592310082743970284091926369 (0xB97DE5D45A234DD78441443EB686E761)
Полное имя : E:\Фильмы\Rips\Alpha.Girls.2013.WEB-DL.720p.CINEMANIA.mkv
Формат : Matroska
Версия формата : Version 4 / Version 2
Размер файла : 2,62 Гбайт
Продолжительность : 1 ч. 26 м.
Общий поток : 4328 Кбит/сек
Название фильма : Release Group CINEMANIA
Дата кодирования : UTC 2014-06-14 12:54:13
Программа кодирования : mkvmerge v7.0.0 ('Where We Going') 64bit built on Jun 9 2014 15:16:27
Библиотека кодирования : libebml v1.3.0 + libmatroska v1.4.1

Видео
Идентификатор : 1
Формат : MPEG-4 Visual
Профиль формата : Advanced Simple@L5
Параметр BVOP формата : Да
Параметр QPel формата : Нет
Параметр GMC формата : Без точки перехода
Параметр матрицы формата : Default (H.263)
Идентификатор кодека : V_MS/VFW/FOURCC / XVID
Идентификатор кодека/Подсказка : XviD
Продолжительность : 1 ч. 26 м.
Битрейт : 3666 Кбит/сек
Ширина : 1280 пикселей
Высота : 720 пикселей
Соотношение сторон : 16:9
Режим частоты кадров : Постоянный
Частота кадров : 23,976 кадра/сек
Цветовое пространство : YUV
Субдискретизация насыщенности : 4:2:0
Битовая глубина : 8 бит
Тип развёртки : Прогрессивная
Метод сжатия : С потерями
Бит/(Пиксели*Кадры) : 0.166
Размер потока : 2,22 Гбайт (85%)
Заголовок : Release Group CINEMANIA
Библиотека кодирования : XviD 1.2.1 (UTC 2008-12-04)
Язык : English
Default : Да
Forced : Нет

Аудио #1
Идентификатор : 2
Формат : AC-3
Формат/Информация : Audio Coding 3
Расширение режима : CM (complete main)
Параметр Endianness формата : Big
Идентификатор кодека : A_AC3
Продолжительность : 1 ч. 26 м.
Вид битрейта : Постоянный
Битрейт : 192 Кбит/сек
Каналы : 2 канала
Расположение каналов : Front: L R
Частота : 48,0 КГц
Битовая глубина : 16 бит
Метод сжатия : С потерями
Размер потока : 119 Мбайт (4%)
Заголовок : Влад и Снежиночка
Язык : Russian
Default : Да
Forced : Да

Аудио #2
Идентификатор : 3
Формат : AC-3
Формат/Информация : Audio Coding 3
Расширение режима : CM (complete main)
Параметр Endianness формата : Big
Идентификатор кодека : A_AC3
Продолжительность : 1 ч. 26 м.
Вид битрейта : Постоянный
Битрейт : 384 Кбит/сек
Каналы : 6 каналов
Расположение каналов : Front: L C R, Side: L R, LFE
Частота : 48,0 КГц
Битовая глубина : 16 бит
Метод сжатия : С потерями
Размер потока : 238 Мбайт (9%)
Язык : English
Default : Нет
Forced : Нет

pb.wtf



Скачать Самки через торрент http://i64.fastpic.ru/big/2014/0614/81/10a1ed8e72089c5fa9c6ad3192b87281.jpeg Скачать фильм Самки через торрент бесплантно в хорошем качестве Описание: Морган переводится в другой колледж из-за личных проблем, повлиявших на ее обучение. Сама того не зная, она оказывается ... 8.5 10 6
Торрент: Зарегистрирован [2014-06-14 21:29] · скачан: 96 раз
Статус: T временная
Размер: 2.62 GB
Как cкачать? Как скачать Самки через торрент | qTorrent

28-11-2019 20:33  

Отключить всю рекламу на сайте

14-06-2014 21:48 Самки Скачать торрент  

хаха ,чё Самки?)
ну и перевод))pb.wtf



14-06-2014 22:50 Самки Скачать торрент  

на кого рассчитаны такие фильмы с рейтингом ниже плинтуса???pb.wtf



15-06-2014 23:49 Самки Скачать торрент  

на самок)))pb.wtf



    Дорогой пользователь! Огромная просьба, поблагодарите релизера, оцените раздачу и оставьте свои комментарий, если Вы скачали Самки через торрент бесплатно! Внесите свою лепту в развитие PiratBit!
    Комментировать посты могут только пользователи прошедшие не сложную регистрацию
    Показать сообщения:    

    Самки через торрент
    Скачать бесплатно Самки
    Самки скачать торрент
    Самки смотреть онлайн
    Cкачать фильм Самки бесплатно
    Самки скачать торрент в хорошем качестве
    Самки смотреть онлайн бесплатно в хорошем качестве


    Вы не можете начинать темы
    Вы не можете отвечать на сообщения
    Вы не можете редактировать свои сообщения
    Вы не можете удалять свои сообщения
    Вы не можете голосовать в опросах
    Вы не можете прикреплять файлы к сообщениям
    Вы можете скачивать файлы