Всегда рабочее зеркало просто перед .vidak.icu напиши любое слово или цифру, Пример http://wic.vidak.icu

>

7.4

iTunes

7.4

2 сезон

9.4

1 сезон

1

7.4

2 сезон

7.2

iTunes

6.0

MVO

13

6.1

iTunes

8.3

Пиратка

30

ULTIMATE

pack

9.9

Лицензия

ВАЖНО

ИГРА 18+

pack

7.3

RePack

MK11

7.7

RePack

jed

7.8

RePack

fifa19

8.5

RePack

RDR2

RePack

NEED FOR SPEED™ PAYBACK

1 сезон

9 сезон

Бесстыжие 9 сезон

Все сериалы

все сериалы на PB.wtf

RePack

FAR CRY 5

Anonymous, доброй ночи, мы катастрофически не успеваем собрать деньги на оплату серверов, помогите нам пожалуйста 5,10,15р., для нас важна любая помощь . В качестве благодарности мы отключим Вам всю рекламу на сайте (укажите свой ник в строку Ваше имя)!

×
  
Magnet ссылка

Нимфоманка: Часть 2 / Nymphomaniac: Vol. II (Ларс фон Триер / Lars von Trier) [2013 г., Драма, BDRip-AVC] AVO [Ю.Сербин] pb.wtf

Нимфоманка: Часть 2 через торрент pb.wtf

Размер: 2.18 GB | Добавлен: 7 лет 7 мес. назад | Торрент скачан:1259 раз
Смотреть онлайн Нимфоманка: Часть 2 | Скачать    Ребята, помогите собрать деньги на оплату серверов!!!

15-06-2014 08:06 Нимфоманка: Часть 2 Скачать торрент  

Нимфоманка: Часть 2 / Nymphomaniac: Vol. II
Год выпуска: 2013
Страна: Дания, Германия, Франция, Бельгия, Великобритания
Жанр: Драма
Продолжительность: 01:57:20
Перевод: Авторский (Ю.Сербин)
Субтитры: Русские (Notabenoid), английские (Full + SDH + SDH-Colored)

Режиссер: Ларс фон Триер / Lars von Trier



В ролях: Шарлотта Генсбур, Стэйси Мартин, Стеллан Скарсгард, Шайа ЛаБаф, Кристиан Слэйтер, Ума Турман, Софи Кеннеди Кларк, Йенс Альбинус, Николас Бро, Фелисити Гилберт

Описание: Однажды одинокий и уже не особенно молодой мужчина по имени Селигман нашел на улице Джо – сильно избитую женщину, лежащую без сознания. Принеся ее домой и осмотрев раны, Селигман в приходит в недоумение: как с ней могла приключиться такая беда? В ответ на этот вопрос Джо дает Селигману исчерпывающий ответ – начинает рассказывать свою историю, окрашенную во все тона эротических переживаний. Будучи еще совсем юной девушкой, Джо сама поставила себе диагноз «нимфомания» и решила, что нет смысла сдерживать сексуальные желания.

Качество: BDRip-AVC
Формат: MKV
Видео кодек: H.264
Аудио кодек: AC3
Видео: х.264, 1040x442 (2.35:1), 23,976 fps, 1631 Кbps, 0.148 bit/pixel
Аудио#1: 48 kHz, AC3 Dolby Digital, 3/2 (L,C,R,l,r) + LFE ch, 448.00 kbps | RUS
Аудио#2: 48 kHz, AC3 Dolby Digital, 3/2 (L,C,R,l,r) + LFE ch, 448.00 kbps | ENG

Релиз группы:
Автор рипа: potroks
Общее
Уникальный идентификатор : 190750151229565876873662937387518818558 (0x8F81248F851EF796A71EFF0DDFE678FE)
Полное имя : Nimfomanka.II.2013.DUAL.BDRip.x264.-HELLYWOOD.mkv
Формат : Matroska
Версия формата : Version 4 / Version 2
Размер файла : 2,18 Гбайт
Продолжительность : 2 ч. 3 м.
Общий поток : 2529 Кбит/сек
Название фильма : HELLYWOOD - rip by potroks
Дата кодирования : UTC 2014-06-11 03:07:16
Программа кодирования : mkvmerge v5.9.0 ('On The Loose') built on Dec 15 2012 16:39:58
Библиотека кодирования : libebml v1.3.0 + libmatroska v1.4.0

Видео
Идентификатор : 1
Формат : AVC
Формат/Информация : Advanced Video Codec
Профиль формата : High@L4.1
Параметр CABAC формата : Да
Параметр ReFrames формата : 10 кадров
Идентификатор кодека : V_MPEG4/ISO/AVC
Продолжительность : 2 ч. 3 м.
Битрейт : 1631 Кбит/сек
Ширина : 1040 пикселей
Высота : 442 пикселя
Соотношение сторон : 2,35:1
Режим частоты кадров : Постоянный
Частота кадров : 23,976 кадра/сек
Цветовое пространство : YUV
Субдискретизация насыщенности : 4:2:0
Битовая глубина : 8 бит
Тип развёртки : Прогрессивная
Бит/(Пиксели*Кадры) : 0.148
Размер потока : 1,37 Гбайт (63%)
Заголовок : Nymphomaniac: Vol. II
Библиотека кодирования : x264 core 130 r2273 b3065e6
Настройки программы : cabac=1 / ref=10 / deblock=1:-2:-2 / analyse=0x3:0x133 / me=umh / subme=11 / psy=1 / psy_rd=0.99:0.05 / mixed_ref=1 / me_range=32 / chroma_me=1 / trellis=2 / 8x8dct=1 / cqm=0 / deadzone=21,11 / fast_pskip=0 / chroma_qp_offset=-3 / threads=9 / lookahead_threads=6 / sliced_threads=0 / nr=0 / decimate=0 / interlaced=0 / bluray_compat=0 / constrained_intra=0 / bframes=11 / b_pyramid=2 / b_adapt=2 / b_bias=0 / direct=3 / weightb=1 / open_gop=0 / weightp=2 / keyint=250 / keyint_min=23 / scenecut=40 / intra_refresh=0 / rc_lookahead=60 / rc=2pass / mbtree=0 / bitrate=1631 / ratetol=1.0 / qcomp=0.70 / qpmin=0 / qpmax=69 / qpstep=4 / cplxblur=20.0 / qblur=0.5 / vbv_maxrate=20000 / vbv_bufsize=25000 / nal_hrd=none / ip_ratio=1.35 / pb_ratio=1.25 / aq=1:0.80
Язык : Dutch
Default : Да
Forced : Нет

Аудио #1
Идентификатор : 2
Формат : AC-3
Формат/Информация : Audio Coding 3
Расширение режима : CM (complete main)
Параметр Endianness формата : Big
Идентификатор кодека : A_AC3
Продолжительность : 2 ч. 3 м.
Вид битрейта : Постоянный
Битрейт : 448 Кбит/сек
Каналы : 6 каналов
Расположение каналов : Front: L C R, Side: L R, LFE
Частота : 48,0 КГц
Битовая глубина : 16 бит
Метод сжатия : С потерями
Размер потока : 396 Мбайт (18%)
Заголовок : AVO | DD 5.1 @ 448 kbps - Ю.Сербин
Язык : Russian
Default : Да
Forced : Нет

Аудио #2
Идентификатор : 3
Формат : AC-3
Формат/Информация : Audio Coding 3
Расширение режима : CM (complete main)
Параметр Endianness формата : Big
Идентификатор кодека : A_AC3
Продолжительность : 2 ч. 3 м.
Вид битрейта : Постоянный
Битрейт : 448 Кбит/сек
Каналы : 6 каналов
Расположение каналов : Front: L C R, Side: L R, LFE
Частота : 48,0 КГц
Битовая глубина : 16 бит
Метод сжатия : С потерями
Размер потока : 396 Мбайт (18%)
Заголовок : Original | DD 5.1 @ 448 kbps
Язык : English
Default : Нет
Forced : Нет

Текст #1
Идентификатор : 4
Формат : UTF-8
Идентификатор кодека : S_TEXT/UTF8
Идентификатор кодека/Информация : UTF-8 Plain Text
Заголовок : notabenoid
Язык : Russian
Default : Нет
Forced : Нет

Текст #2
Идентификатор : 5
Формат : UTF-8
Идентификатор кодека : S_TEXT/UTF8
Идентификатор кодека/Информация : UTF-8 Plain Text
Заголовок : SDH
Язык : English
Default : Нет
Forced : Нет

Текст #3
Идентификатор : 6
Формат : UTF-8
Идентификатор кодека : S_TEXT/UTF8
Идентификатор кодека/Информация : UTF-8 Plain Text
Язык : English
Default : Нет
Forced : Нет

Текст #4
Идентификатор : 7
Формат : UTF-8
Идентификатор кодека : S_TEXT/UTF8
Идентификатор кодека/Информация : UTF-8 Plain Text
Заголовок : SDH Low
Язык : English
Default : Нет
Forced : Нет

Меню
00:00:00.000 : en:00:00:00.000
00:09:37.911 : en:00:09:37.911
00:20:11.293 : en:00:20:11.293
00:30:42.257 : en:00:30:42.257
00:38:48.159 : en:00:38:48.159
00:50:53.926 : en:00:50:53.926
00:59:07.294 : en:00:59:07.294
01:10:27.598 : en:01:10:27.598
01:19:57.209 : en:01:19:57.209
01:29:57.726 : en:01:29:57.726
01:40:14.175 : en:01:40:14.175
01:51:08.370 : en:01:51:08.370

pb.wtf



Скачать Нимфоманка: Часть 2 через торрент https://pic.kartinco.top/new/img/2014-06/11/ucnx5h2a9lp63rbk4qzcmlkn7.png Скачать, смотреть онлайн Нимфоманка: Часть 2 бесплантно в хорошем качестве Описание: Однажды одинокий и уже не особенно молодой мужчина по имени Селигман нашел на улице Джо – сильно избитую женщину, лежащую без ... 9.5 10 12
Торрент: Зарегистрирован [2014-06-15 08:06] · скачан: 1 259 раз
Статус: √ проверено
Размер: 2.18 GB
Как cкачать? Как скачать Нимфоманка: Часть 2 через торрент | UTorrent

% Раздел Тема Автор DL S | L
Фильмы [HD 720p, 1080p] (Хороший звук DUB, MVO) [ 26.65 GB ] Нимфоманка: Часть 1-2 / Nymphomaniac: Vol. I-II [2013 BDRip 1080p Любительский многоголосый|HamsterStudio] nn99nn Скачать
1 | 0
T Фильмы (Blu-ray, BD-Remux, HDDVD) [ 22.53 GB ] Нимфоманка: Часть 2 / Nymphomaniac: Vol. II [2013 BDRemux ][Чистый звук] Ворон Скачать
1 | 0
T Арт-хаус и авторское кино [ 2.06 GB ] Нимфоманка: Часть 2 / Nymphomaniac: Vol. II [2013 HDRip ][Чистый звук] Tipok_dv Скачать
1 | 0

28-11-2019 20:33  

Отключить всю рекламу на сайте

    Дорогой пользователь! Огромная просьба, поблагодарите релизера, оцените раздачу и оставьте свои комментарий, если Вы скачали Нимфоманка: Часть 2 через торрент бесплатно!
    Комментировать посты могут только пользователи прошедшие не сложную регистрацию
    Показать сообщения:    

    Нимфоманка: Часть 2 через торрент
    Скачать бесплатно Нимфоманка: Часть 2
    Нимфоманка: Часть 2 скачать торрент
    Нимфоманка: Часть 2 смотреть онлайн
    Cкачать фильм Нимфоманка: Часть 2 бесплатно
    Нимфоманка: Часть 2 скачать торрент в хорошем качестве
    Нимфоманка: Часть 2 смотреть онлайн бесплатно в хорошем качестве


    Вы не можете начинать темы
    Вы не можете отвечать на сообщения
    Вы не можете редактировать свои сообщения
    Вы не можете удалять свои сообщения
    Вы не можете голосовать в опросах
    Вы не можете прикреплять файлы к сообщениям
    Вы можете скачивать файлы