Ссылка на приватное зеркало нашего сайта всего за 1$. Внимание количество ограничено!!!

2 сезон

iTunes

1 сезон

1

iTunes

iTunes

iTunes

1 сезон

RePack

30

ИГРА 18+

pack

ВАЖНО

!!Акция!!

Alien_RageХит недели

RePack

MK11
pack

Забери бонус

RePack

jed

!!Акция!!

Alien_Rage

RePack

fifa19

RePack

Assassins Creed: Odyssey

RePack

NEED FOR SPEED™ PAYBACK

4 сезон

9 сезон

Бесстыжие 9 сезон

Все сериалы

все сериалы на PB.wtf

RePack

FAR CRY 5
  

Песни пьющих / Pod Mocnym Aniolem (Войчех Смажовски / Wojciech Smarzowski) [2014, Польша, драма, HDRip,Любительский (одноголосый)[datynet] pb.wtf

Песни пьющих через торрент pb.wtf

Размер: 1.36 GB | Добавлен: 6 лет 4 мес. назад | Торрент скачан:208 раз
Скачать  

15-06-2014 08:47 Песни пьющих Скачать торрент  

Песни пьющих / Pod Mocnym Aniolem

Год выпуска: 2014
Страна: Польша
Жанр: драма
Продолжительность: 01:45:14
Перевод: Любительский (одноголосый)[datynet]
Субтитры: Нет

Режиссер: Войчех Смажовски / Wojciech Smarzowski
В ролях: Роберт Венцкевич (Jerzy), Юлия Киёвская (She), Адам Воронович (He), Яцек Брачак (Columbus), Лех Дыблик (Leader), Аркадиуш Якубик (Terrorist), Iwona Wszolkówna (Joanna), Кинга Прейс (Mania), Ивона Бельска (Queen of Kent), Мариан Дзендзель (Moonshine King), Кшиштоф Кершновский (Engineer), Марчин Дорочиньский (Borys)

Описание: История о медленном нравственном падении человека, о трагической борьбе с собой и своим пороком, об отчаянии, надежде, следующих провалах и о любви, которая, как свет в тоннеле, даёт главному герою последний шанс, чтобы вернуться к нормальной жизни и освободиться от страшной болезни.

kinopoisk.ru: 7.000 (29)
imdb.com: 7.10 (281)

Качество: HDRip
Формат: AVI
Видео кодек: XviD
Аудио кодек: MP3
Видео: XviD, 720x304 (2.35:1), 1654 kbps, 25 fps, 0,302 bpp
Аудио: MP3 / 2.0 / 48 kHz / 192 kbps /


Общее
Полное имя : C:\закачки\Pod.Mocnym.Aniolem.2014.L1.HDRip.1400Mb.avi
Формат : AVI
Формат/Информация : Audio Video Interleave
Размер файла : 1,36 Гбайт
Продолжительность : 1 ч. 45 м.
Общий поток : 1856 Кбит/сек
Программа кодирования : VirtualDubMod 1.5.10.3 | (build 2550/release)
Библиотека кодирования : VirtualDubMod build 2550/release

Видео
Идентификатор : 0
Формат : MPEG-4 Visual
Профиль формата : Advanced Simple@L5
Параметр BVOP формата : 1
Параметр QPel формата : Нет
Параметр GMC формата : Без точки перехода
Параметр матрицы формата : Default (MPEG)
Режим смешивания : Сжатый битовый поток
Идентификатор кодека : XVID
Идентификатор кодека/Подсказка : XviD
Продолжительность : 1 ч. 45 м.
Битрейт : 1655 Кбит/сек
Ширина : 720 пикселей
Высота : 304 пикселя
Соотношение сторон : 2,35:1
Частота кадров : 25,000 кадров/сек
Цветовое пространство : YUV
Субдискретизация насыщенности : 4:2:0
Битовая глубина : 8 бит
Тип развёртки : Прогрессивная
Метод сжатия : С потерями
Бит/(Пиксели*Кадры) : 0.302
Размер потока : 1,22 Гбайт (89%)
Библиотека кодирования : XviD 1.2.1 (UTC 2008-12-04)

Аудио
Идентификатор : 1
Формат : MPEG Audio
Версия формата : Version 1
Профиль формата : Layer 3
Режим : Joint stereo
Идентификатор кодека : 55
Идентификатор кодека/Подсказка : MP3
Продолжительность : 1 ч. 45 м.
Вид битрейта : Постоянный
Битрейт : 192 Кбит/сек
Каналы : 2 канала
Частота : 48,0 КГц
Метод сжатия : С потерями
Размер потока : 145 Мбайт (10%)
Выравнивание : Соединение по промежуткам
Продолжительность промежутка : 40 мс. (1,00 видеокадр)
Время предзагрузки промежутка : 504 мс.
pb.wtf



Скачать Песни пьющих через торрент http://i64.fastpic.ru/big/2014/0609/d4/df9ced7d37261fb765dab28e4cbe8bd4.jpg Скачать фильм Песни пьющих через торрент бесплантно в хорошем качестве Описание: История о медленном нравственном падении человека, о трагической борьбе с собой и своим пороком, об отчаянии, надежде, следующих ... 10 10 6
Торрент: Зарегистрирован [2014-06-15 08:47] · скачан: 208 раз
Статус: T временная
Размер: 1.36 GB
Как cкачать? Как скачать Песни пьющих через торрент | qTorrent

28-11-2019 20:33  

Отключить всю рекламу на сайте

    Дорогой пользователь! Огромная просьба, поблагодарите релизера, оцените раздачу и оставьте свои комментарий, если Вы скачали Песни пьющих через торрент бесплатно! Внесите свою лепту в развитие PiratBit!
    Комментировать посты могут только пользователи прошедшие не сложную регистрацию
    Показать сообщения:    

    Песни пьющих через торрент
    Скачать бесплатно Песни пьющих
    Песни пьющих скачать торрент
    Песни пьющих смотреть онлайн
    Cкачать фильм Песни пьющих бесплатно
    Песни пьющих скачать торрент в хорошем качестве
    Песни пьющих смотреть онлайн бесплатно в хорошем качестве


    Вы не можете начинать темы
    Вы не можете отвечать на сообщения
    Вы не можете редактировать свои сообщения
    Вы не можете удалять свои сообщения
    Вы не можете голосовать в опросах
    Вы не можете прикреплять файлы к сообщениям
    Вы можете скачивать файлы