Ссылка на приватное зеркало нашего сайта всего за 1$. Внимание количество ограничено!!!

2 сезон

iTunes

1 сезон

1

2 сезон

2 сезон

iTunes

1 сезон

RePack

30

Ultimate

ВАЖНО

ИГРА 18+

pack

RePack

MK11
pack

Забери бонус

RePack

jed

!!Акция!!

Alien_Rage

RePack

fifa19

RePack

Assassins Creed: Odyssey

RePack

NEED FOR SPEED™ PAYBACK

4 сезон

9 сезон

Бесстыжие 9 сезон

Все сериалы

все сериалы на PB.wtf

RePack

FAR CRY 5
  

Механик / The Mechanic (Майкл Уиннер) [1972 г., боевик, триллер, криминал, BD-Remux, Профессиональный многоголосый,Одноголосый,Украинский,Оригинал] pb.wtf

Механик через торрент pb.wtf

Размер: 28.21 GB | Добавлен: 6 лет 5 мес. назад | Торрент скачан:2 раза
Скачать  

15-06-2014 10:51 Механик Скачать торрент  

Механик / The Mechanic
Год выпуска: 1972
Страна: США
Жанр: боевик, триллер, криминал
Продолжительность: 01:39:52
Перевод: Профессиональный многоголосый+Одноголосый+Украинский+Оригинал

Режиссер: Майкл Уиннер
Продюссер: Роберт Чартофф, Ирвин Уинклер, Генри Геллис
Сценарий: Льюис Джон Карлино

Премьера в мире: 17 ноября 1972



В ролях: Чарльз Бронсон, Ян-Майкл Винсент, Кинен Уинн, Джилл Айрленд, Линда Риджвей, Фрэнк ДеКова, Джеймс Дэвидсон, Линдсэй Кросби, Стив Кори, Так Кубота

Описание: Профессиональный убийца из могущественной организации начинает опекать юного ученика и обучает его всему, что знает и умеет. Когда его студент позднее оборачивает приобретенные знания против учителя, ситуация разрешается самым необычным образом.

Качество: BD-Remux
Формат: BDMV
Видео кодек: AVC
Аудио кодек: AC3,DTS-HD MA
Видео: 1920x1080, (16:9), 23,976 кадра/сек, 38,0 Мбит/сек
Аудио#1: 48 КГц, AC3, 2 канала, 192 Кбит/сек (Многоголосый закадровый, DVD-Магия)
Аудио#2: 48 КГц, AC3, 2 канала, 192 Кбит/сек (Многоголосый закадровый, Первый канал)
Аудио#3: 48 КГц, DTS-HD MA 1.0, 768 Кбит/сек (Одноголосый закадровый, Гаврилов)
Аудио#4: 48 КГц, AC3, 2 канала, 192 Кбит/сек (Одноголосый закадровый, Михалев)
Аудио#5: 48 КГц, AC3, 2 канала, 192 Кбит/сек (Многоголосый закадровый, 1+1, Украина)
Аудио#6: 48 КГц, DTS-HD MA 1.0, 768 Кбит/сек (Оригинал)
Аудио#7: 48 КГц, DTS, 2 канала, 255 Кбит/сек (Оригинал)
скриншот   скриншот   скриншот   скриншот  
Общее
Полное имя : D:\загрузки\THE_MECHANIC_1972_REMUX_HDCLUB
Формат : Blu-ray movie
Продолжительность : 1 ч. 39 м.
Режим общего битрейта : Переменный
Общий поток : 1 бит/сек

Видео
Идентификатор : 4113 (0x1011)
Идентификатор меню : 1 (0x1)
Формат : AVC
Формат/Информация : Advanced Video Codec
Профиль формата : High@L4.1
Параметр CABAC формата : Да
Параметр ReFrames формата : 4 кадра
Идентификатор кодека : 27
Продолжительность : 1 ч. 39 м.
Вид битрейта : Переменный
Максимальный битрейт : 38,0 Мбит/сек
Ширина : 1920 пикселей
Высота : 1080 пикселей
Соотношение сторон : 16:9
Частота кадров : 23,976 кадра/сек
Цветовое пространство : YUV
Субдискретизация насыщенности : 4:2:0
Битовая глубина : 8 бит
Оригинал : 00000.m2ts

Аудио #1
Идентификатор : 4352 (0x1100)
Идентификатор меню : 1 (0x1)
Формат : AC-3
Формат/Информация : Audio Coding 3
Расширение режима : CM (complete main)
Параметр Endianness формата : Big
Идентификатор кодека : 129
Продолжительность : 1 ч. 39 м.
Вид битрейта : Постоянный
Битрейт : 192 Кбит/сек
Каналы : 2 канала
Расположение каналов : Front: L R
Частота : 48,0 КГц
Битовая глубина : 16 бит
Метод сжатия : С потерями
Размер потока : 137 Мбайт (0%)
Язык : Russian / Russian
bsid : 8
dialnorm : -27
dialnorm/String : -27 dB
compr : -0.28
compr/String : -0.28 dB
dsurmod : 0
acmod : 2
lfeon : 0
dialnorm_Average : -27
dialnorm_Average/String : -27 dB
dialnorm_Minimum : -27
dialnorm_Minimum/String : -27 dB
dialnorm_Maximum : -27
dialnorm_Maximum/String : -27 dB
dialnorm_Count : 273
compr_Average : 9.26
compr_Average/String : 9.26 dB
compr_Minimum : -6.02
compr_Minimum/String : -6.02 dB
compr_Maximum : 14.81
compr_Maximum/String : 14.81 dB
compr_Count : 273
dynrng_Average : 0.88
dynrng_Average/String : 0.88 dB
dynrng_Minimum : -6.02
dynrng_Minimum/String : -6.02 dB
dynrng_Maximum : 5.16
dynrng_Maximum/String : 5.16 dB
dynrng_Count : 273
format_identifier : AC-3
Оригинал : 00000.m2ts

Аудио #2
Идентификатор : 4353 (0x1101)
Идентификатор меню : 1 (0x1)
Формат : AC-3
Формат/Информация : Audio Coding 3
Расширение режима : CM (complete main)
Параметр Endianness формата : Big
Идентификатор кодека : 129
Продолжительность : 1 ч. 39 м.
Вид битрейта : Постоянный
Битрейт : 192 Кбит/сек
Каналы : 2 канала
Расположение каналов : Front: L R
Частота : 48,0 КГц
Битовая глубина : 16 бит
Метод сжатия : С потерями
Размер потока : 137 Мбайт (0%)
Язык : Russian / Russian
bsid : 4
dialnorm : -31
dialnorm/String : -31 dB
compr : -0.28
compr/String : -0.28 dB
dsurmod : 0
acmod : 2
lfeon : 0
dialnorm_Average : -31
dialnorm_Average/String : -31 dB
dialnorm_Minimum : -31
dialnorm_Minimum/String : -31 dB
dialnorm_Maximum : -31
dialnorm_Maximum/String : -31 dB
dialnorm_Count : 273
compr_Average : -0.72
compr_Average/String : -0.72 dB
compr_Minimum : -4.53
compr_Minimum/String : -4.53 dB
compr_Maximum : -0.28
compr_Maximum/String : -0.28 dB
compr_Count : 273
format_identifier : AC-3
Оригинал : 00000.m2ts

Аудио #3
Идентификатор : 4354 (0x1102)
Идентификатор меню : 1 (0x1)
Формат : DTS
Формат/Информация : Digital Theater Systems
Профиль формата : MA / Core
Режим : 16
Параметр Endianness формата : Big
Режим смешивания : Stream extension
Идентификатор кодека : 134
Продолжительность : 1 ч. 39 м.
Вид битрейта : Переменный
Битрейт : Неизвестно / 768 Кбит/сек
Каналы : 1 канал
Расположение каналов : Front: C
Частота : 48,0 КГц
Битовая глубина : 24 бит
Метод сжатия : Без потерь / Lossy
Язык : Russian / Russian
Оригинал : 00000.m2ts

Аудио #4
Идентификатор : 4355 (0x1103)
Идентификатор меню : 1 (0x1)
Формат : AC-3
Формат/Информация : Audio Coding 3
Расширение режима : CM (complete main)
Параметр Endianness формата : Big
Идентификатор кодека : 129
Продолжительность : 1 ч. 39 м.
Вид битрейта : Постоянный
Битрейт : 192 Кбит/сек
Каналы : 2 канала
Расположение каналов : Front: L R
Частота : 48,0 КГц
Битовая глубина : 16 бит
Метод сжатия : С потерями
Размер потока : 137 Мбайт (0%)
Язык : Russian / Russian
bsid : 4
dialnorm : -31
dialnorm/String : -31 dB
compr : -0.28
compr/String : -0.28 dB
dsurmod : 0
acmod : 2
lfeon : 0
dialnorm_Average : -31
dialnorm_Average/String : -31 dB
dialnorm_Minimum : -31
dialnorm_Minimum/String : -31 dB
dialnorm_Maximum : -31
dialnorm_Maximum/String : -31 dB
dialnorm_Count : 273
compr_Average : -2.47
compr_Average/String : -2.47 dB
compr_Minimum : -11.02
compr_Minimum/String : -11.02 dB
compr_Maximum : -0.28
compr_Maximum/String : -0.28 dB
compr_Count : 273
format_identifier : AC-3
Оригинал : 00000.m2ts

Аудио #5
Идентификатор : 4356 (0x1104)
Идентификатор меню : 1 (0x1)
Формат : AC-3
Формат/Информация : Audio Coding 3
Расширение режима : CM (complete main)
Параметр Endianness формата : Big
Идентификатор кодека : 129
Продолжительность : 1 ч. 39 м.
Вид битрейта : Постоянный
Битрейт : 192 Кбит/сек
Каналы : 2 канала
Расположение каналов : Front: L R
Частота : 48,0 КГц
Битовая глубина : 16 бит
Метод сжатия : С потерями
Размер потока : 137 Мбайт (0%)
Язык : Ukrainian / Ukrainian
bsid : 4
dialnorm : -31
dialnorm/String : -31 dB
compr : -0.28
compr/String : -0.28 dB
dsurmod : 0
acmod : 2
lfeon : 0
dialnorm_Average : -31
dialnorm_Average/String : -31 dB
dialnorm_Minimum : -31
dialnorm_Minimum/String : -31 dB
dialnorm_Maximum : -31
dialnorm_Maximum/String : -31 dB
dialnorm_Count : 273
compr_Average : -1.17
compr_Average/String : -1.17 dB
compr_Minimum : -6.30
compr_Minimum/String : -6.30 dB
compr_Maximum : -0.28
compr_Maximum/String : -0.28 dB
compr_Count : 273
format_identifier : AC-3
Оригинал : 00000.m2ts

Аудио #6
Идентификатор : 4357 (0x1105)
Идентификатор меню : 1 (0x1)
Формат : DTS
Формат/Информация : Digital Theater Systems
Профиль формата : MA / Core
Режим : 16
Параметр Endianness формата : Big
Режим смешивания : Stream extension
Идентификатор кодека : 134
Продолжительность : 1 ч. 39 м.
Вид битрейта : Переменный
Битрейт : Неизвестно / 768 Кбит/сек
Каналы : 1 канал
Расположение каналов : Front: C
Частота : 48,0 КГц
Битовая глубина : 24 бит
Метод сжатия : Без потерь / Lossy
Язык : English / English
Оригинал : 00000.m2ts

Аудио #7
Идентификатор : 4358 (0x1106)
Идентификатор меню : 1 (0x1)
Формат : DTS
Формат/Информация : Digital Theater Systems
Режим : 16
Параметр Endianness формата : Big
Идентификатор кодека : 130
Продолжительность : 1 ч. 39 м.
Вид битрейта : Постоянный
Битрейт : 255 Кбит/сек
Каналы : 2 канала
Расположение каналов : Front: L R
Частота : 48,0 КГц
Битовая глубина : 24 бит
Метод сжатия : С потерями
Размер потока : 182 Мбайт (1%)
Язык : English / English
Оригинал : 00000.m2ts

Текст
Идентификатор : 4608 (0x1200)
Идентификатор меню : 1 (0x1)
Формат : PGS
Идентификатор кодека : 144
Продолжительность : 1 ч. 39 м.
Язык : English / English
Оригинал : 00000.m2ts

Меню
00:00:00.000 : Chapter 1
00:10:08.105 : Chapter 2
00:16:04.421 : Chapter 3
00:23:06.384 : Chapter 4
00:30:26.699 : Chapter 5
00:39:46.007 : Chapter 6
00:48:07.967 : Chapter 7
01:00:15.027 : Chapter 8
01:08:05.914 : Chapter 9
01:17:54.167 : Chapter 10
01:28:54.996 : Chapter 11
01:39:36.845 : Chapter 12
01:39:51.777 : Chapter 13

pb.wtf



Скачать Механик через торрент http://pic.kartinco.top/images/6/gwqgc.jpg Скачать фильм Механик через торрент бесплантно в хорошем качестве Описание: Профессиональный убийца из могущественной организации начинает опекать юного ученика и обучает его всему, что знает и умеет. ... 10 10 5
Info! Золотая раздача, скачанное не засчитывается.
Торрент: Зарегистрирован [2014-06-15 10:51] · скачан: 2 раз
Статус: √ проверено
Размер: 28.21 GB
Как cкачать? Как скачать Механик через торрент | qTorrent

% Раздел Тема Автор DL S | L
Фильмы с авторской озвучкой [ 1.45 GB ] Механик / The Mechanic [2011 HDRip] [US] [AVO] killermax2013 Скачать
1 | 0
Фильмы 2011 [ 2.47 GB ] Механик / The Mechanic [2011 HDRip-AVC ] winchester00100010 Скачать
1 | 0
Фильмы (HD 720p, 1080p) (48-60 fps) [ 3.33 GB ] Механик / The Mechanic [2010 BDRip 720p ] Sub slaventi-69 Скачать
1 | 0
Классика зарубежного кино [ 1.45 GB ] Механик / The Mechanic [1972 BDRip многоголосый] Russian Mafia Скачать
1 | 0
Фильмы (Blu-ray, BD-Remux, HDDVD) [ 24.78 GB ] Механик / The Mechanic [2011 BD-Remux + Оригинал] Бумер Скачать
1 | 0
Видео (iPhone, iPod Touch) [ 450 MB ] Механик / The Mechanic [2010 DVDRip] azagoth_666 Скачать
1 | 0
Фильмы [HD 720p, 1080p] (Хороший звук DUB, MVO) [ 7.76 GB ] Механик / The Mechanic [2011 BDRip 1080p ] Бумер Скачать
1 | 0

28-11-2019 20:33  

Отключить всю рекламу на сайте

    Дорогой пользователь! Огромная просьба, поблагодарите релизера, оцените раздачу и оставьте свои комментарий, если Вы скачали Механик через торрент бесплатно! Внесите свою лепту в развитие PiratBit!
    Комментировать посты могут только пользователи прошедшие не сложную регистрацию
    Показать сообщения:    

    Механик через торрент
    Скачать бесплатно Механик
    Механик скачать торрент
    Механик смотреть онлайн
    Cкачать фильм Механик бесплатно
    Механик скачать торрент в хорошем качестве
    Механик смотреть онлайн бесплатно в хорошем качестве


    Вы не можете начинать темы
    Вы не можете отвечать на сообщения
    Вы не можете редактировать свои сообщения
    Вы не можете удалять свои сообщения
    Вы не можете голосовать в опросах
    Вы не можете прикреплять файлы к сообщениям
    Вы можете скачивать файлы