Ссылка на приватное зеркало всего за 1$. Внимание количество ограничено!!!

iTunes

1+1

iTunes

мы

WEB-DL

1

iTunes

Чернобыль

iTunes

Ральф против интернета

Лицензия

ПШазам

Лицензия

Оно 2

Лицензия

30
pack

Вам бонус

ВАЖНО

!!Акция!!

Alien_RageХит недели

RePack

Resident Evil 21

ИГРА 18+

pack

RePack

jed

!!Акция!!

Alien_Rage

RePack

fifa19

RePack

Assassins Creed: Odyssey

RePack

NEED FOR SPEED™ PAYBACK

3 сезон

9 сезон

Бесстыжие 9 сезон

Все сериалы

все сериалы на PB.wtf

RePack

FAR CRY 5
Ребята, катастрофически не хватает 1900р. для оплаты серверов за Октябрь (всвязи с блокировками трафик упал в 3 раза), 1-2р., выручайте.
  

Свадьба соек (Евгений Гинзбург) [1984 г., Мюзикл, DVDRip] pb.wtf

Свадьба соек через торрент pb.wtf

Размер: 954 MB | Добавлен: 5 лет 5 мес. назад | Торрент скачан:17 раз
Скачать  

15-06-2014 12:02 Свадьба соек Скачать торрент  

Информация о фильме:
Название: Свадьба соек

Год выпуска: 1984
Страна: СССР
Студия: Грузия-телефильм
Жанр: Мюзикл

Режиссёр: Евгений Гинзбург
В ролях: Луиза Кобаладзе, Гоча Лория, Темур Рцхиладзе, Манана Тодадзе, Теймураз Циклаури, Лили Згваури






Описание:
Свадьба соек — это птичья версия Ромео и Джульетты. Две сойки самец и самочка любят друг друга. Вредные родители, озабоченные чистотой породы и ходом эволюции, не дают им воссоединиться. Тогда за дело принимается добрый старый ворон, и все, естественно, заканчивается большим свадебным пиром.




Релиз от: R.G.RealMT




Файл:
Продолжительность: 01:10:34
Перевод: Не требуется
Субтитры: Нет

Качество: DVDRip
Формат: AVI
Видео кодек: XVID
Аудио кодек: MP3
Видео: ~1750 kbps, 688x516, 25 fps
Аудио: 128 kbps, 2 ch, 44,1 khz




Скриншоты:
Общее
Полное имя : D:\Фильмы\720\Film.R.G.RealMT\Svad'ba soek.avi
Формат : AVI
Формат/Информация : Audio Video Interleave
Размер файла : 954 Мбайт
Продолжительность : 1 ч. 10 м.
Общий поток : 1890 Кбит/сек

Видео
Идентификатор : 0
Формат : MPEG-4 Visual
Профиль формата : Advanced Simple@L4
Параметр BVOP формата : Нет
Параметр QPel формата : Нет
Параметр GMC формата : Без точки перехода
Параметр матрицы формата : Default (H.263)
Идентификатор кодека : XVID
Идентификатор кодека/Подсказка : XviD
Продолжительность : 1 ч. 10 м.
Битрейт : 1750 Кбит/сек
Ширина : 688 пикселей
Высота : 516 пикселей
Соотношение сторон : 4:3
Частота кадров : 25,000 кадров/сек
Цветовое пространство : YUV
Субдискретизация насыщенности : 4:2:0
Битовая глубина : 8 бит
Тип развёртки : Прогрессивная
Метод сжатия : С потерями
Бит/(Пиксели*Кадры) : 0.197
Размер потока : 883 Мбайт (93%)

Аудио
Идентификатор : 1
Формат : MPEG Audio
Версия формата : Version 1
Профиль формата : Layer 3
Идентификатор кодека : 55
Идентификатор кодека/Подсказка : MP3
Продолжительность : 1 ч. 10 м.
Вид битрейта : Постоянный
Битрейт : 128 Кбит/сек
Каналы : 2 канала
Частота : 44,1 КГц
Метод сжатия : С потерями
Размер потока : 64,6 Мбайт (7%)
Выравнивание : Разделение по промежуткам
Продолжительность промежутка : 26 мс. (0,65 видеокадр)
pb.wtf



Скачать Свадьба соек через торрент http://i63.fastpic.ru/big/2014/0615/d7/349d990bb54c39d6822c2cb5950e99d7.jpg Скачать фильм Свадьба соек через торрент бесплантно в хорошем качестве Описание: Свадьба соек — это птичья Ромео и Джульетты. Две сойки самец и самочка любят друг друга. Вредные родители, озабоченные ... 10 10 2
Торрент: Зарегистрирован [2014-06-15 12:02] · скачан: 17 раз
Статус: √ проверено
Размер: 954 MB
Как cкачать? Как скачать Свадьба соек через торрент | qTorrent

28-11-2019 20:33  

Отключить всю рекламу на сайте

    Дорогой пользователь! Огромная просьба, поблагодарите релизера, оцените раздачу и оставьте свои комментарий, если Вы скачали Свадьба соек через торрент бесплатно! Внесите свою лепту в развитие PiratBit!
    Комментировать посты могут только пользователи прошедшие не сложную регистрацию
    Показать сообщения:    

    Свадьба соек через торрент
    Скачать бесплатно Свадьба соек
    Свадьба соек скачать торрент
    Свадьба соек смотреть онлайн
    Cкачать фильм Свадьба соек бесплатно
    Свадьба соек скачать торрент в хорошем качестве
    Свадьба соек смотреть онлайн бесплатно в хорошем качестве


    Вы не можете начинать темы
    Вы не можете отвечать на сообщения
    Вы не можете редактировать свои сообщения
    Вы не можете удалять свои сообщения
    Вы не можете голосовать в опросах
    Вы не можете прикреплять файлы к сообщениям
    Вы можете скачивать файлы