Всегда рабочее зеркало без VPN и Proxy просто перед .vidak.icu напиши любое слово или цифру, Пример http://wvip.vidak.icu

MVO

MVO

1 сезон

1

1 сезон

iTunes

1 сезон

13

1 сезон

Deluxe

pack

Рекомендуем

Repack

30

ВАЖНО

RePack

MK11

RePack

jed

RePack

fifa19

RePack

RDR2

RePack

NEED FOR SPEED™ PAYBACK

Кинопоиск HD

6 сезон

 Острые козырьки 6 сезон

Все сериалы

все сериалы на PB.wtf

RePack

FAR CRY 5
  
Magnet ссылка

Кот Гром и заколдованный дом / The House of Magic [2013 г., мультфильм, семейный, HDRip, Дубляж, Лицензия] pb.wtf

Кот Гром и заколдованный дом через торрент pb.wtf

Раздают: 1 [ 0 KB/s ]
Размер: 2.19 GB | Добавлен: 8 лет 1 мес. назад | Торрент скачан:687 раз
Смотреть онлайн Кот Гром и заколдованный дом | Скачать    Ребята, помогите собрать деньги на оплату серверов!!!

15-06-2014 12:34 Кот Гром и заколдованный дом Скачать торрент  

Кот Гром и заколдованный дом / The House of Magic
Год выпуска: 2013
Страна: США,Бельгия / nWave Pictures, Studio Canal International, Anton Capital Entertainment (ACE)
Жанр: мультфильм, семейный
Продолжительность: 01:25:28
Перевод: Дубляж (Лицензия R5)
Режиссер: Джереми Дегрусон, Бен Стассен
  • В ролях: Синда Адамс,Эдвард Эснер,Эмили Блант,Грант Джордж,Юджин Леви,Дэнни Манн,Юэн МакГрегор,Рон Перлман,Уильям Шетнер,Кифер Сазерленд

    Описание: Любопытный рыжий кот попадает в дом старого фокусника и узнает секрет его трюков. Так начинается его знакомство с учеными зверями и живыми игрушками, а также невероятные приключения полные юмора и опасностей.
    Качество: HDRip
    Формат: AVI
    Видео кодек: XviD
    Аудио кодек: AC3
    Видео: 720x400 (1.80:1), 24.000 fps, XviD build 50 ~3272 kbps avg, 0.47 bit/pixel
    Аудио: 48 kHz, AC3 Dolby Digital, 3/2 (L,C,R,l,r) + LFE ch, ~384 kbps

    Общее
    Полное имя : H:\кино\Кот Гром и заколдованный дом 2013 HDRip.avi
    Формат : AVI
    Формат/Информация : Audio Video Interleave
    Профиль формата : OpenDML
    Размер файла : 2,19 Гбайт
    Продолжительность : 1 ч. 25 м.
    Общий поток : 3662 Кбит/сек
    Программа кодирования : VirtualDubMod 1.5.10.3 | www.virtualdub-fr.org || (build 2550/release)
    Библиотека кодирования : VirtualDubMod build 2550/release

    Видео
    Идентификатор : 0
    Формат : MPEG-4 Visual
    Профиль формата : Advanced [email protected]
    Параметр BVOP формата : 2
    Параметр QPel формата : Нет
    Параметр GMC формата : Без точки перехода
    Параметр матрицы формата : Default (H.263)
    Идентификатор кодека : XVID
    Идентификатор кодека/Подсказка : XviD
    Продолжительность : 1 ч. 25 м.
    Битрейт : 3268 Кбит/сек
    Ширина : 720 пикселей
    Высота : 400 пикселей
    Соотношение сторон : 16:9
    Частота кадров : 24,000 кадра/сек
    Цветовое пространство : YUV
    Субдискретизация насыщенности : 4:2:0
    Битовая глубина : 8 бит
    Тип развёртки : Прогрессивная
    Метод сжатия : С потерями
    Бит/(Пиксели*Кадры) : 0.473
    Размер потока : 1,95 Гбайт (89%)
    Библиотека кодирования : XviD 1.2.1 (UTC 2008-12-04)

    Аудио
    Идентификатор : 1
    Формат : AC-3
    Формат/Информация : Audio Coding 3
    Расширение режима : CM (complete main)
    Параметр Endianness формата : Big
    Идентификатор кодека : 2000
    Продолжительность : 1 ч. 25 м.
    Вид битрейта : Постоянный
    Битрейт : 384 Кбит/сек
    Каналы : 6 каналов
    Расположение каналов : Front: L C R, Side: L R, LFE
    Частота : 48,0 КГц
    Битовая глубина : 16 бит
    Метод сжатия : С потерями
    Размер потока : 234 Мбайт (10%)
    Выравнивание : Разделение по промежуткам
    Продолжительность промежутка : 42 мс. (1,00 видеокадр)
    Время предзагрузки промежутка : 500 мс.

    pb.wtf



  • Скачать Кот Гром и заколдованный дом через торрент https://pic1.kartinco.top/images/61/y8ark.jpg Скачать, смотреть онлайн Кот Гром и заколдованный дом бесплантно в хорошем качестве Описание: Любопытный рыжий кот попадает в дом старого фокусника и узнает секрет его трюков. Так начинается его знакомство с учеными зверями ... 9.9 10 15
    Торрент: Зарегистрирован [2014-06-15 12:34] · скачан: 687 раз
    Статус: √ проверено
    Размер: 2.19 GB
    Как cкачать? Как скачать Кот Гром и заколдованный дом через торрент | UTorrent

    % Раздел Тема Автор DL S | L
    3D Мультфильмы [ 8.05 GB ] Кот Гром и заколдованный дом в 3Д / The House of Magic 3D [2013 Мультфильм BDrip 1080p] Full OverUnder / Вертикальная стереопара serega768 Скачать
    1 | 0
    3D Мультфильмы [ 5.04 GB ] Кот Гром и заколдованный дом 3D / The House of Magic 3D [2013 Бельгия мультфильм BDRip1080p] DUB [Чистый звук] GEKADOL Скачать
    1 | 0
    3D Мультфильмы [ 4.31 GB ] Кот Гром и заколдованный дом в 3D / The House of Magic in 3D [2013 Мультфильм BDRip 1080p ] Анаглиф slaventi-69 Скачать
    1 | 0
    Иностранные мультфильмы [ 1.46 GB ] Кот Гром и заколдованный дом / Le Manoir Magique / The House of Magic [2013 Мультфильм BDRip-AVC] [] potroks Скачать
    2 | 0
    Иностранные мультфильмы [ 1.37 GB ] Кот Гром и заколдованный дом / The House of Magic [2013 Бельгия мультфильм HDRip [ ] Ворон Скачать
    1 | 0
    Зарубежные Мультфильмы (BDRip 1080p, 720p, Blu-ray, BD-Remux) [ 3.64 GB ] Кот Гром и заколдованный дом / The House of Magic [2013 мультфильм BDRip 720p Чистый звук] Серёжк@ Скачать
    1 | 1

    28-11-2019 20:33  

    Отключить вcю реклaмy на сайте

    16-06-2014 06:36 Кот Гром и заколдованный дом Скачать торрент  

    Звук отстаёт от видео !pb.wtf



    21-06-2014 14:22 Кот Гром и заколдованный дом Скачать торрент  

    Master_27rus писал(а):

    Звук отстаёт от видео !

    не отстаёт, а наоборот опережает и очень сильно.pb.wtf



    03-07-2014 18:05 Кот Гром и заколдованный дом Скачать торрент  

    Очень сильные проблемы со звуком... Для какой цели данная раздача? Смотреть то не реально, смысл от нее?pb.wtf



      Дорогой пользователь! Огромная просьба, поблагодарите релизера, оцените раздачу и оставьте свои комментарий, если Вы скачали Кот Гром и заколдованный дом через торрент бесплатно!
      Комментировать посты могут только пользователи прошедшие не сложную регистрацию
      Показать сообщения:    

      Кот Гром и заколдованный дом через торрент
      Скачать бесплатно Кот Гром и заколдованный дом
      Кот Гром и заколдованный дом скачать торрент
      Кот Гром и заколдованный дом смотреть онлайн
      Cкачать фильм Кот Гром и заколдованный дом бесплатно
      Кот Гром и заколдованный дом скачать торрент в хорошем качестве
      Кот Гром и заколдованный дом смотреть онлайн бесплатно в хорошем качестве


      Вы не можете начинать темы
      Вы не можете отвечать на сообщения
      Вы не можете редактировать свои сообщения
      Вы не можете удалять свои сообщения
      Вы не можете голосовать в опросах
      Вы не можете прикреплять файлы к сообщениям
      Вы можете скачивать файлы