Ссылка на приватное зеркало нашего сайта всего за 1$. Внимание количество ограничено!!!

2 сезон

iTunes

1 сезон

1

2 сезон

2 сезон

iTunes

1 сезон

RePack

30

Ultimate

ВАЖНО

ИГРА 18+

pack

RePack

MK11
pack

Забери бонус

RePack

jed

!!Акция!!

Alien_Rage

RePack

fifa19

RePack

Assassins Creed: Odyssey

RePack

NEED FOR SPEED™ PAYBACK

4 сезон

9 сезон

Бесстыжие 9 сезон

Все сериалы

все сериалы на PB.wtf

RePack

FAR CRY 5
  

Курт Сеит и Шура / Kurt Seyit ve Şura / Сезон:1 / Серии: 1-13 из 13 (Хилаль Сарал) [2014 г., Драма, мелодрама, военный, история, HDTVRip] DVO (Бислан Нагоев, Лидия Максимова) pb.wtf

Курт Сеит и Шура через торрент pb.wtf

Размер: 17.69 GB | Добавлен: 6 лет 5 мес. назад | Торрент скачан:99 раз
Скачать  

15-06-2014 18:23 Курт Сеит и Шура Скачать торрент  

Курт Сеит и Шура / Kurt Seyit ve Şura
Год выпуска: 2014
Страна: Турция Ay Yapim
Жанр: Драма, мелодрама, военный, история
Продолжительность: 13 х ~ 01:43:40
Перевод: Любительский двухголосый
Автор релиза и синхрон звука - shachter. Работа над сериалом - группа ВК "Озвучка турецкого и индийского кинематографов". (Озвучивание со 2-й серии: Бислан Нагоев и Лидия Максимова).
Огромное спасибо за перевод с турецкого, любезно предоставленный группой vk.com/kurtseyt_official СОВМЕСТНО с группой odnoklassniki.ru/kurtseytsuraofficial.
Перевод серий с турецкого: Вая Каясова, Светлана Буринова, Melike Nehir, при содействии Виктории Коломиец и Ирины Котовой.
Роли озвучивали в 1-й серии:
- Бислан Нагоев - мужские голоса
- Галина Мительман - Шура, Татьяна, и др.
- Татьяна Дементьева - Валентина, баронесса и др.

Режиссер: Хилаль Сарал
Продюссер: Керем Джатай
Сценарий: Nermin Bezmen, Эдже Йоренч

Премьера в мире: 4 марта 2014

В ролях: Кыванч Татлытуг, Фара Зейнеп Абдуллах, Биркан Сокуллу, Усхан Чакыр, Седа Гювен, Елчин Сангу, Аслы Орджан, Неше Байкент, Мехмет Йылмаз, Догу Алпан, Берк Ерчер, Петро Сергей, Зеррин Нишанджи, Орал Озер, Барыш Алпайкут, Сельчук Сазак, Емек Ерель, Атай Гергин, Тукче Карабаджак, Сюмейра Коч, Сарпджан Кёроглу, Филиз Кайя, Атилла Кылыч, Сердар Гёкхан, Шефика Юмит Толун, Зеррин Текиндор
Описание: Новый проект продакшн-студии «Ay Yapım» и телеканала «Star TV» сериал «Курт Сеит и Шура» обещает стать самым популярным проектом этого года. В основу истории о судьбе двух русских иммигрантов, снятой по одноименному роману известной турецкой писательницы Нермин Безмен, положены воспоминания деда писательницы, который лично был свидетелем всех описанных событий. Сериал охватит период с последних дней существования Царской России до 20-х годов двадцатого века. Герои переживут крах правящей царской династии и Октябрьскую революцию. На фоне этих исторических событий, полных трагизма, горьких утрат, жестоких разочарований, и развернется действие сериала. Главной сюжетной линией будет любовь между бывшим офицером Царской армии лейтенантом Куртом Сеитом и девушкой из аристократического рода Шурой (Александрой).
Качество: HDTVRip
Формат: AVI
Видео кодек: XviD
Аудио кодек: MP3
Видео: Xvid 720x400, 25000fps, 1 684 Kbps
Аудио: MP3, 44100Hz, stereo, 192kbps
Релиз от: shachter





General
Format : AVI
Format/Info : Audio Video Interleave
File size : 1.37 GiB
Duration : 1h 39mn
Overall bit rate : 1 962 Kbps

Video
ID : 0
Format : MPEG-4 Visual
Codec ID : XVID
Codec ID/Hint : XviD
Duration : 1h 39mn
Bit rate : 1 684 Kbps
Width : 720 pixels
Height : 400 pixels
Display aspect ratio : 16:9
Frame rate : 25.000 fps
Color space : YUV
Chroma subsampling : 4:2:0
Compression mode : Lossy
Bits/(Pixel*Frame) : 0.234
Stream size : 1.17 GiB (86%)

Audio
ID : 1
Format : MPEG Audio
Codec ID : 55
Codec ID/Hint : MP3
Duration : 1h 39mn
Bit rate : 192 Kbps
Channel(s) : 2 channels
Sampling rate : 44.1 KHz
Compression mode : Lossy
Stream size : 137 MiB (10%)
Alignment : Aligned on interleaves

pb.wtf



Скачать Курт Сеит и Шура через торрент http://pic.kartinco.top/images/6/emgpm.jpg Скачать фильм Курт Сеит и Шура через торрент бесплантно в хорошем качестве Описание: Новый проект продакшн-студии «Ay Yapım» и телеканала «Star TV» сериал «Курт Сеит и Шура» обещает стать самым популярным проектом ... 10 10 4
Info! Серебряная раздача, засчитывается только 50% скачанного.
Торрент: Зарегистрирован [2014-06-15 18:23] · скачан: 99 раз
Статус: √ проверено
Размер: 17.69 GB
Как cкачать? Как скачать Курт Сеит и Шура через торрент | qTorrent

28-11-2019 20:33  

Отключить всю рекламу на сайте

22-02-2015 19:01 Курт Сеит и Шура Скачать торрент  

будут ли добавляться новые серии?
Спасибоpb.wtf



17-05-2015 18:33 Курт Сеит и Шура Скачать торрент  

Timon2011 писал(а):

будут ли добавляться новые серии?
Спасибо

мне бы тоже хотелось продолжение...pb.wtf



    Дорогой пользователь! Огромная просьба, поблагодарите релизера, оцените раздачу и оставьте свои комментарий, если Вы скачали Курт Сеит и Шура через торрент бесплатно! Внесите свою лепту в развитие PiratBit!
    Комментировать посты могут только пользователи прошедшие не сложную регистрацию
    Показать сообщения:    

    Курт Сеит и Шура через торрент
    Скачать бесплатно Курт Сеит и Шура
    Курт Сеит и Шура скачать торрент
    Курт Сеит и Шура смотреть онлайн
    Cкачать фильм Курт Сеит и Шура бесплатно
    Курт Сеит и Шура скачать торрент в хорошем качестве
    Курт Сеит и Шура смотреть онлайн бесплатно в хорошем качестве


    Вы не можете начинать темы
    Вы не можете отвечать на сообщения
    Вы не можете редактировать свои сообщения
    Вы не можете удалять свои сообщения
    Вы не можете голосовать в опросах
    Вы не можете прикреплять файлы к сообщениям
    Вы можете скачивать файлы