Ссылка на приватное зеркало нашего сайта всего за 1$. Внимание количество ограничено!!!

2 сезон

iTunes

1 сезон

1

iTunes

iTunes

iTunes

1 сезон

RePack

30

ИГРА 18+

pack

ВАЖНО

!!Акция!!

Alien_RageХит недели

RePack

MK11
pack

Забери бонус

RePack

jed

!!Акция!!

Alien_Rage

RePack

fifa19

RePack

Assassins Creed: Odyssey

RePack

NEED FOR SPEED™ PAYBACK

4 сезон

9 сезон

Бесстыжие 9 сезон

Все сериалы

все сериалы на PB.wtf

RePack

FAR CRY 5
  

Исцеление / De Behandeling (Ханс Херботс / Hans Herbots) [ 2014 , Бельгия , триллер , HDRip ] VO (Xixidok) pb.wtf

Исцеление через торрент pb.wtf

Размер: 1.46 GB | Добавлен: 6 лет 4 мес. назад | Торрент скачан:256 раз
Скачать  

16-06-2014 07:59 Исцеление Скачать торрент  

Исцеление / De Behandeling
Год выпуска: 2014
Страна: Бельгия
Жанр: триллер
Продолжительность: 02:10:53
Перевод: Любительский (одноголосый)(Xixidok)
Субтитры: Нет
Режиссер: Ханс Херботс / Hans Herbots
Сценарий: Карл Йос / Carl Joos, Mo Hayder
Продюсер: Питер Букэерт / Peter Bouckaert
Композитор: Kieran Klaassen, Мелхер Мирманс / Melcher Meirmans, Криснанне Вигел / Chrisnanne Wiegel
В ролях:
Герт Ван Рампелберг (Nick Cafmeyer), Ина Жер (Danni Petit), Йохан ван Ассхе (Ivan Plettinckx), Лаура Верлинден (Steffi Vankerkhove), Ингрид де Вос (Nancy Lammers), Патриция Берти (Bela Nercessian), Emma Kristin (Anahid), Брит Ван Хуф (Cindy Simons), Доминик Ван Малдер (Roland Claeren), Тибо Ванденборре (Alex Simons), Michael Vergauwen (Chris Gommaer)
Мировая премьера: 29 января 2014
Описание:
Фильм, снятый по одноименному роману Мо Хайдера, повествует о старшем инспекторе полиции Нике Kафмейере, которому приходится расследовать исчезновение, а потом и убийство мальчика, ставшего жертвой изнасилования. При этом, сложившиеся обстоятельства напоминают Нику о пропаже в детстве его младшего брата Бьорна, чья судьба до сих пор не выяснена. Ему предлагается на выбор узнать всё о Бьорне или поймать маньяка...
Рейтинг
imdb.com: 7.60 (227)
Качество: HDRip
Формат: AVI
Видео кодек: XviD
Аудио кодек: AC3
Видео: 1391 Кбит/сек, 720*304 (2,35:1), в 23,976 кадра/сек, MPEG-4 Visual (XviD)
Аудио: 192 Кбит/сек, 48,0 КГц, 16 бит, 2 канала, AC-3
Общее
Полное имя : D:\Фильмы\Исцеление.avi
Формат : AVI
Формат/Информация : Audio Video Interleave
Размер файла : 1,46 Гбайт
Продолжительность : 2 ч. 10 м.
Общий поток : 1592 Кбит/сек
Программа кодирования : VirtualDubMod 1.5.10.3 | www.virtualdub-fr.org || (build 2550/release)
Библиотека кодирования : VirtualDubMod build 2550/release

Видео
Идентификатор : 0
Формат : MPEG-4 Visual
Профиль формата : Advanced Simple@L5
Параметр BVOP формата : 1
Параметр QPel формата : Нет
Параметр GMC формата : Без точки перехода
Параметр матрицы формата : Выборочная
Идентификатор кодека : XVID
Идентификатор кодека/Подсказка : XviD
Продолжительность : 2 ч. 10 м.
Битрейт : 1391 Кбит/сек
Ширина : 720 пикселей
Высота : 304 пикселя
Соотношение сторон : 2,35:1
Частота кадров : 23,976 кадра/сек
Цветовое пространство : YUV
Субдискретизация насыщенности : 4:2:0
Битовая глубина : 8 бит
Тип развёртки : Прогрессивная
Метод сжатия : С потерями
Бит/(Пиксели*Кадры) : 0.265
Размер потока : 1,27 Гбайт (87%)
Библиотека кодирования : XviD 1.2.1 (UTC 2008-12-04)

Аудио
Идентификатор : 1
Формат : AC-3
Формат/Информация : Audio Coding 3
Расширение режима : CM (complete main)
Параметр Endianness формата : Big
Идентификатор кодека : 2000
Продолжительность : 2 ч. 10 м.
Вид битрейта : Постоянный
Битрейт : 192 Кбит/сек
Каналы : 2 канала
Расположение каналов : Front: L R
Частота : 48,0 КГц
Битовая глубина : 16 бит
Метод сжатия : С потерями
Размер потока : 180 Мбайт (12%)
Выравнивание : Разделение по промежуткам
Продолжительность промежутка : 42 мс. (1,00 видеокадр)
Время предзагрузки промежутка : 500 мс.

скриншот   скриншот   скриншот   скриншот   скриншот   скриншот   скриншот   скриншот   скриншот   скриншот  

pb.wtf



Скачать Исцеление через торрент http://pic.kartinco.top/images/6/kgh48.jpg Скачать фильм Исцеление через торрент бесплантно в хорошем качестве Описание:Фильм, снятый по одноименному роману Мо Хайдера, повествует о старшем инспекторе полиции Нике Kафмейере, которому приходится ... 10 10 5
Торрент: Зарегистрирован [2014-06-16 07:59] · скачан: 256 раз
Статус: T временная
Размер: 1.46 GB
Как cкачать? Как скачать Исцеление через торрент | qTorrent

28-11-2019 20:33  

Отключить всю рекламу на сайте

17-06-2014 05:59 Исцеление Скачать торрент  

Хороший фильм все 2 часа в напрежение и в переживаниях еще бы перевод хороший но и так интересно смотретьpb.wtf



    Дорогой пользователь! Огромная просьба, поблагодарите релизера, оцените раздачу и оставьте свои комментарий, если Вы скачали Исцеление через торрент бесплатно! Внесите свою лепту в развитие PiratBit!
    Комментировать посты могут только пользователи прошедшие не сложную регистрацию
    Показать сообщения:    

    Исцеление через торрент
    Скачать бесплатно Исцеление
    Исцеление скачать торрент
    Исцеление смотреть онлайн
    Cкачать фильм Исцеление бесплатно
    Исцеление скачать торрент в хорошем качестве
    Исцеление смотреть онлайн бесплатно в хорошем качестве


    Вы не можете начинать темы
    Вы не можете отвечать на сообщения
    Вы не можете редактировать свои сообщения
    Вы не можете удалять свои сообщения
    Вы не можете голосовать в опросах
    Вы не можете прикреплять файлы к сообщениям
    Вы можете скачивать файлы