Ссылка на приватное зеркало нашего сайта всего за 1$. Внимание количество ограничено!!!

2 сезон

iTunes

1 сезон

1

iTunes

iTunes

iTunes

1 сезон

RePack

30

ИГРА 18+

pack

ВАЖНО

!!Акция!!

Alien_RageХит недели

RePack

MK11
pack

Забери бонус

RePack

jed

!!Акция!!

Alien_Rage

RePack

fifa19

RePack

Assassins Creed: Odyssey

RePack

NEED FOR SPEED™ PAYBACK

4 сезон

9 сезон

Бесстыжие 9 сезон

Все сериалы

все сериалы на PB.wtf

RePack

FAR CRY 5
  

Повитуха / Die Hebamme (Ханну Салонен / Hannu Salonen) [ 2014 , Германия, Австрия, Чехия , драма , HDRip ] VO [R.A.I.M] pb.wtf

Повитуха через торрент pb.wtf

Размер: 1.41 GB | Добавлен: 6 лет 4 мес. назад | Торрент скачан:132 раза
Скачать  

17-06-2014 04:46 Повитуха Скачать торрент  

Повитуха / Die Hebamme
Год выпуска: 2014
Страна: Германия, Австрия, Чехия
Жанр: драма
Продолжительность: 01:54:50
Перевод: Любительский (одноголосый)[R.A.I.M] - перевод на русский язык [Карина Шестерина]
Субтитры: Нет
Режиссер: Ханну Салонен / Hannu Salonen
Сценарий: Торстен Веттке / Thorsten Wettcke, Керстин Канц / Kerstin Cantz
Продюсер: Оливер Бербен / Oliver Berben, Жан Элерт / Jan Ehlert, Филип Херинг / Filip Hering, Ulrike Lettermann, Дитер Зальцман / Dieter Salzmann
Оператор: Вольф Зигельман / Wolf Siegelmann
Композитор: Марсель Барсотти / Marcel Barsotti
В ролях:
David Baalcke (Martin Herbst), Бенедикт Блашкович (Lambert Fessler), Владимир Бурлаков (Konrad), Dagny Dewath (Bele), Martina Ebm (Bettina), Себастьян Фриц (Konstantin), Аксель Мильберг (Kilian), Йоханнес Нуссбаум (Pauli), Андреас Пичман (Dr. Clemens Heuser), Лиза Поттхофф (Elgin Gottschalk), Йозефина Пройсс (Gesa), Friederike Sipp (Hannah)
Мировая премьера: 25 марта 2014
Описание:
У Гесы с детства лишь одна цель: однажды она станет такой же хорошей повитухой, как и ее мать. Ее ранняя смерть заставляет девушку перебраться в «родильный дом» Марбурга. Именно там, в нечеловеческих условиях, уважаемый профессор Килиан обучает искусству повитух. Его насильственные методы быстро вызывают в Гесе дух сопротивления. В то же время она все больше проявляет симпатию к профессору анатомии, доктору Клеменсу Хойзеру. Загадочная серия самоубийств держит город в напряжении.
Рейтинг
imdb.com: 6.10 (54)
Качество: HDRip
Формат: AVI
Видео кодек: XviD
Аудио кодек: AC3
Видео: 1551 Кбит/сек, 720*400 (16:9), в 25,000 кадров/сек, MPEG-4 Visual (XviD)
Аудио: 192 Кбит/сек, 48,0 КГц, 16 бит, 2 канала, AC-3
Общее
Полное имя : D:\Фильмы\Повитуха2014.avi
Формат : AVI
Формат/Информация : Audio Video Interleave
Размер файла : 1,41 Гбайт
Продолжительность : 1 ч. 54 м.
Общий поток : 1753 Кбит/сек
Программа кодирования : VirtualDubMod 1.5.10.2 (build 2542/release)
Библиотека кодирования : VirtualDubMod build 2542/release

Видео
Идентификатор : 0
Формат : MPEG-4 Visual
Профиль формата : Advanced Simple@L5
Параметр BVOP формата : 2
Параметр QPel формата : Нет
Параметр GMC формата : Без точки перехода
Параметр матрицы формата : Default (H.263)
Режим смешивания : Сжатый битовый поток
Идентификатор кодека : XVID
Идентификатор кодека/Подсказка : XviD
Продолжительность : 1 ч. 54 м.
Битрейт : 1551 Кбит/сек
Ширина : 720 пикселей
Высота : 400 пикселей
Соотношение сторон : 16:9
Частота кадров : 25,000 кадров/сек
Цветовое пространство : YUV
Субдискретизация насыщенности : 4:2:0
Битовая глубина : 8 бит
Тип развёртки : Прогрессивная
Метод сжатия : С потерями
Бит/(Пиксели*Кадры) : 0.215
Размер потока : 1,24 Гбайт (88%)
Библиотека кодирования : XviD 1.2.1 (UTC 2008-12-04)

Аудио
Идентификатор : 1
Формат : AC-3
Формат/Информация : Audio Coding 3
Расширение режима : CM (complete main)
Параметр Endianness формата : Big
Идентификатор кодека : 2000
Продолжительность : 1 ч. 54 м.
Вид битрейта : Постоянный
Битрейт : 192 Кбит/сек
Каналы : 2 канала
Расположение каналов : Front: L R
Частота : 48,0 КГц
Битовая глубина : 16 бит
Метод сжатия : С потерями
Размер потока : 158 Мбайт (11%)
Выравнивание : Разделение по промежуткам
Продолжительность промежутка : 40 мс. (1,00 видеокадр)
Время предзагрузки промежутка : 500 мс.

скриншот   скриншот   скриншот   скриншот   скриншот   скриншот   скриншот   скриншот   скриншот   скриншот   скриншот   скриншот  

pb.wtf



Скачать Повитуха через торрент http://i61.fastpic.ru/big/2014/0617/2c/224d2c005e52d7e04bd7811ccc84a82c.jpg Скачать фильм Повитуха через торрент бесплантно в хорошем качестве Описание:У Гесы с детства лишь одна цель: однажды она станет такой же хорошей повитухой, как и ее мать. Ее ранняя смерть заставляет девушку ... 9.3 10 9
Торрент: Зарегистрирован [2014-06-17 04:46] · скачан: 132 раз
Статус: T временная
Размер: 1.41 GB
Как cкачать? Как скачать Повитуха через торрент | qTorrent

28-11-2019 20:33  

Отключить всю рекламу на сайте

17-06-2014 06:19 Повитуха Скачать торрент  

GEKADOL, спасибо. Очень жесткий и серьёзный фильм.pb.wtf



17-06-2014 13:44 Повитуха Скачать торрент  

igorutka писал(а):

GEKADOL, спасибо. Очень жесткий и серьёзный фильм.

Тебе Спасибо!!! за поддержку)
pb.wtf



    Дорогой пользователь! Огромная просьба, поблагодарите релизера, оцените раздачу и оставьте свои комментарий, если Вы скачали Повитуха через торрент бесплатно! Внесите свою лепту в развитие PiratBit!
    Комментировать посты могут только пользователи прошедшие не сложную регистрацию
    Показать сообщения:    

    Повитуха через торрент
    Скачать бесплатно Повитуха
    Повитуха скачать торрент
    Повитуха смотреть онлайн
    Cкачать фильм Повитуха бесплатно
    Повитуха скачать торрент в хорошем качестве
    Повитуха смотреть онлайн бесплатно в хорошем качестве


    Вы не можете начинать темы
    Вы не можете отвечать на сообщения
    Вы не можете редактировать свои сообщения
    Вы не можете удалять свои сообщения
    Вы не можете голосовать в опросах
    Вы не можете прикреплять файлы к сообщениям
    Вы можете скачивать файлы