2 сезон

iTunes

1 сезон

1

iTunes

iTunes

iTunes

1 сезон

RePack

30

ИГРА 18+

pack

ВАЖНО

!!Акция!!

Alien_RageХит недели

RePack

MK11
pack

Забери бонус

RePack

jed

!!Акция!!

Alien_Rage

RePack

fifa19

RePack

Assassins Creed: Odyssey

RePack

NEED FOR SPEED™ PAYBACK

4 сезон

9 сезон

Бесстыжие 9 сезон

Все сериалы

все сериалы на PB.wtf

RePack

FAR CRY 5
  

Все ради нее / Pour elle (Фред Кавайе / Fred Cavayе) [2008, Франция, Испания, триллер, драма, криминал, BDRip 1080p,Профессиональный (многоголосый, закадровый) pb.wtf

Все ради нее через торрент pb.wtf

Размер: 6.93 GB | Добавлен: 6 лет 4 мес. назад | Торрент скачан:53 раза
Скачать  

17-06-2014 04:50 Все ради нее Скачать торрент  

Все ради нее / Pour elle
Год выпуска: 2008
Страна: Франция, Испания
Жанр: триллер, драма, криминал
Продолжительность: 01:36:33
Перевод: Профессиональный (многоголосый, закадровый)
Субтитры: русские

Режиссер: Фред Кавайе / Fred Cavayе
В ролях: Венсан Линдон (Julien Auclert), Дайан Крюгер (Lisa Auclert), Ланселот Рош (Oscar), Оливье Маршаль (Henri Pasquet), Хамму Грайа (Commandant Susini), Лилиан Ровер (Mère Julien), Оливье Перье (Père Julien), Мусса Мааскри (Martial), Реми Мартен (Capitaine Jousseaume), Тьерри Годар (Pascal), Слиман Хаджар (David), Доротея Тавернье (Nathalie)

Описание: Лиза, Жюльен и их маленький сын Оскар - счастливая семья. Но однажды утром полиция приезжает за Лизой. Её обвиняют в преднамеренном убийстве. Все улики свидетельствуют против неё. И теперь Жюльен, обычный учитель французского, готов сделать всё, чтобы спасти жену. Даже если ему придётся переступить границы закона.

kinopoisk.ru: 7.416 (2278)
imdb.com: 7.20 (5784)

Качество: BDRip 1080p
Формат: MKV
Видео кодек: AVC
Аудио кодек: AC3
Видео: AVC, 1920x820 (2.35:1), 8996 kbps, 23,976 fps, 0,238 bpp
Аудио русский: AC3 / 5.1 / 48 kHz / 640 kbps / 16 bit ||
Аудио французский: AC3 / 5.1 / 48 kHz / 640 kbps / 16 bit

Релиз от:

General
Unique ID : 171701693934377301818465171105981688556 (0x812C8B1B47E6B1638A5EF7B56C786AEC)
Complete name : C:\закачки\Pour.elle.2008.х264.BDRip.1080p.mkv
Format : Matroska
Format version : Version 2
File size : 6.93 GiB
Duration : 1h 36mn
Overall bit rate : 10.3 Mbps
Movie name : ?WIDDER?
Encoded date : UTC 2013-04-09 13:44:38
Writing application : mkvmerge v4.5.0 ('Speed of Light') сборка от Feb 1 2011 02:10:32
Writing library : libebml v1.2.0 + libmatroska v1.1.0

Video
ID : 1
Format : AVC
Format/Info : Advanced Video Codec
Format profile : High@L4.1
Format settings, CABAC : Yes
Format settings, ReFrames : 5 frames
Codec ID : V_MPEG4/ISO/AVC
Duration : 1h 36mn
Bit rate : 8 996 Kbps
Width : 1 920 pixels
Height : 820 pixels
Display aspect ratio : 2.35:1
Frame rate : 23.976 fps
Color space : YUV
Chroma subsampling : 4:2:0
Bit depth : 8 bits
Scan type : Progressive
Bits/(Pixel*Frame) : 0.238
Stream size : 5.93 GiB (86%)
Title : Anything for Her / Pour elle (2008)
Writing library : x264 core 130 r2273 b3065e6
Encoding settings : cabac=1 / ref=5 / deblock=1:-3:-3 / analyse=0x3:0x133 / me=umh / subme=11 / psy=1 / psy_rd=1.00:0.00 / mixed_ref=1 / me_range=48 / chroma_me=1 / trellis=2 / 8x8dct=1 / cqm=0 / deadzone=21,11 / fast_pskip=0 / chroma_qp_offset=-2 / threads=12 / lookahead_threads=1 / sliced_threads=0 / nr=0 / decimate=1 / interlaced=0 / bluray_compat=0 / constrained_intra=0 / bframes=5 / b_pyramid=2 / b_adapt=2 / b_bias=0 / direct=3 / weightb=1 / open_gop=0 / weightp=2 / keyint=240 / keyint_min=23 / scenecut=40 / intra_refresh=0 / rc_lookahead=60 / rc=2pass / mbtree=0 / bitrate=8996 / ratetol=1.0 / qcomp=0.60 / qpmin=0 / qpmax=69 / qpstep=4 / cplxblur=20.0 / qblur=0.5 / vbv_maxrate=62500 / vbv_bufsize=78125 / nal_hrd=none / ip_ratio=1.40 / pb_ratio=1.30 / aq=2:0.80
Language : French
Default : Yes
Forced : No

Audio #1
ID : 2
Format : AC-3
Format/Info : Audio Coding 3
Mode extension : CM (complete main)
Codec ID : A_AC3
Duration : 1h 36mn
Bit rate mode : Constant
Bit rate : 640 Kbps
Channel(s) : 6 channels
Channel positions : Front: L C R, Side: L R, LFE
Sampling rate : 48.0 KHz
Bit depth : 16 bits
Compression mode : Lossy
Stream size : 442 MiB (6%)
Title : AC3, 640 Kbps (6 ch) Профессиональный многоголосый
Language : Russian
Default : Yes
Forced : No

Audio #2
ID : 3
Format : AC-3
Format/Info : Audio Coding 3
Mode extension : CM (complete main)
Codec ID : A_AC3
Duration : 1h 36mn
Bit rate mode : Constant
Bit rate : 640 Kbps
Channel(s) : 6 channels
Channel positions : Front: L C R, Side: L R, LFE
Sampling rate : 48.0 KHz
Bit depth : 16 bits
Compression mode : Lossy
Stream size : 442 MiB (6%)
Title : AC3, 640 Kbps (6 ch) Original
Language : French
Default : No
Forced : No

Text
ID : 4
Format : PGS
Muxing mode : zlib
Codec ID : S_HDMV/PGS
Codec ID/Info : The same subtitle format used on BDs/HD-DVDs
Language : Russian
Default : No
Forced : No

Menu
00:00:00.000 : :Chapter 01
00:06:56.582 : :Chapter 02
00:15:49.031 : :Chapter 03
00:21:36.712 : :Chapter 04
00:25:33.114 : :Chapter 05
00:38:48.492 : :Chapter 06
00:46:52.643 : :Chapter 07
00:52:56.422 : :Chapter 08
01:02:11.310 : :Chapter 09
01:10:50.120 : :Chapter 10
01:21:12.617 : :Chapter 11
01:32:23.287 : :Chapter 12
pb.wtf



Скачать Все ради нее через торрент http://i047.radikal.ru/1304/7b/96c6a6d4f72a.jpg Скачать фильм Все ради нее через торрент бесплантно в хорошем качестве Описание: Лиза, Жюльен и их маленький сын Оскар - счастливая семья. Но однажды утром полиция приезжает за Лизой. Её обвиняют в ... 10 10 1
Info! Золотая раздача, скачанное не засчитывается.
Торрент: Зарегистрирован [2014-06-17 04:50] · скачан: 53 раз
Статус: √ проверено
Размер: 6.93 GB
Как cкачать? Как скачать Все ради нее через торрент | qTorrent

% Раздел Тема Автор DL S | L
Фильмы [HD 720p, 1080p] (Хороший звук DUB, MVO) [ 5.7 GB ] Все ради нее / Pour elle [2008 BDRip 720p от _denis_100 / NNNB] MVO + Original + Sub _denis_100 Скачать
1 | 0
Фильмы 2006-2008 [ 1.45 GB ] Все ради нее / Pour elle [2008 HDRip лицензия] aspace Скачать
1 | 0

28-11-2019 20:33  

Отключить всю рекламу на сайте

    Дорогой пользователь! Огромная просьба, поблагодарите релизера, оцените раздачу и оставьте свои комментарий, если Вы скачали Все ради нее через торрент бесплатно! Внесите свою лепту в развитие PiratBit!
    Комментировать посты могут только пользователи прошедшие не сложную регистрацию
    Показать сообщения:    

    Все ради нее через торрент
    Скачать бесплатно Все ради нее
    Все ради нее скачать торрент
    Все ради нее смотреть онлайн
    Cкачать фильм Все ради нее бесплатно
    Все ради нее скачать торрент в хорошем качестве
    Все ради нее смотреть онлайн бесплатно в хорошем качестве


    Вы не можете начинать темы
    Вы не можете отвечать на сообщения
    Вы не можете редактировать свои сообщения
    Вы не можете удалять свои сообщения
    Вы не можете голосовать в опросах
    Вы не можете прикреплять файлы к сообщениям
    Вы можете скачивать файлы