Ссылка на приватное зеркало нашего сайта всего за 1$. Внимание количество ограничено!!!

2 сезон

iTunes

1 сезон

1

iTunes

iTunes

iTunes

1 сезон

RePack

30

ИГРА 18+

pack

ВАЖНО

!!Акция!!

Alien_RageХит недели

RePack

MK11
pack

Забери бонус

RePack

jed

!!Акция!!

Alien_Rage

RePack

fifa19

RePack

Assassins Creed: Odyssey

RePack

NEED FOR SPEED™ PAYBACK

4 сезон

9 сезон

Бесстыжие 9 сезон

Все сериалы

все сериалы на PB.wtf

RePack

FAR CRY 5
  

Преступник / Felon (Рик Роман Во) [2008 г., драма, криминал, BDRip 720p] MVO + Original Eng pb.wtf

Преступник через торрент pb.wtf

Размер: 8.28 GB | Добавлен: 6 лет 4 мес. назад | Торрент скачан:102 раза
Скачать  

17-06-2014 07:05 Преступник Скачать торрент  

Преступник / Felon
Год выпуска: 2008
Страна: США
Жанр: драма, криминал
Продолжительность: 01:44:04
Перевод: Профессиональный многоголосый, закадровый (с лицензии)
Субтитры: английские, финские, французские, румынские, испанские, шведские

Режиссер: Рик Роман Во
Продюссер: Дэн Кестон, Такер Тули, Райан Брин
Сценарий: Рик Роман Во

Бюджет: $2 900 000
Премьера в мире: 13 июля 2008










В ролях: Вэл Килмер, Стивен Дорфф, Гарольд Перрино, Сэм Шепард, Ник Чинланд, Марисоль Николс, Энн Арчер, Нейт Паркер, Грег Серано, Бриттани Перрино




Описание: Чудесный семьянин с грандиозным будущим теряет все, когда он случайно убивает ворвавшегося в его дом грабителя. По решению суда ему предстоит провести 3 года в тюрьме строгого режима, где правила общества больше не действуют. И начинается тюремный беспредел, где выживает сильнейший. Главному герою приходиться всегда быть на чеку, чтобы не попасть в очередную драку.




Доп. информация: за рип спасибо ESiR, -DaRkY-




Качество: BDRip 720p
Формат: MKV
Видео кодек: H.264
Аудио кодек: AC3 + DTS
Видео: 1280x692, 9420 Kbps, 23.976 fps
Аудио#1: Русский AC3 5.1, 48 KHz, 448 Kbps
Аудио#2: Английский DTS 5.1, 48 KHz, 1536 Kbps
скриншот   скриншот   скриншот   скриншот   скриншот   скриншот   скриншот   скриншот  

General
Unique ID : 219624083315567426041513879012701466289 (0xA53A0F52C3303FAD8F37E38B5DDD6EB1)
Complete name : Преступник\Felon.2008.BD.Rip.720p.h264.Rus.Eng.mkv
Format : Matroska
Format version : Version 1
File size : 8.28 GiB
Duration : 1h 44mn
Overall bit rate : 11.4 Mbps
Movie name : Felon.2008.720p.BluRay.DTS.x264-ESiR
Encoded date : UTC 2008-09-13 11:26:48
Writing application : mkvmerge v2.3.0 ('Freak U') built on Sep 8 2008 18:32:16
Writing library : libebml v0.7.7 + libmatroska v0.8.1
Attachment : Yes / Yes / Yes

Video
ID : 1
Format : AVC
Format/Info : Advanced Video Codec
Format profile : High@L5.1
Format settings, CABAC : Yes
Format settings, ReFrames : 12 frames
Codec ID : V_MPEG4/ISO/AVC
Duration : 1h 44mn
Bit rate : 9 420 Kbps
Width : 1 280 pixels
Height : 692 pixels
Display aspect ratio : 1.85:1
Frame rate mode : Constant
Frame rate : 23.976 fps
Color space : YUV
Chroma subsampling : 4:2:0
Bit depth : 8 bits
Scan type : Progressive
Bits/(Pixel*Frame) : 0.444
Stream size : 6.69 GiB (81%)
Writing library : x264 core 60 r877M c74a8e2
Encoding settings : cabac=1 / ref=12 / deblock=1:-3:-3 / analyse=0x3:0x133 / me=umh / subme=7 / me-prepass=0 / brdo=1 / mixed_ref=1 / me_range=45 / chroma_me=1 / trellis=0 / 8x8dct=1 / cqm=2 / deadzone=8,8 / chroma_qp_offset=0 / threads=6 / nr=0 / decimate=1 / mbaff=0 / fgo=8 / bframes=16 / b_pyramid=1 / b_adapt=1 / b_bias=0 / direct=3 / wpredb=1 / bime=1 / keyint=250 / keyint_min=25 / scenecut=40(pre) / rc=2pass / bitrate=9420 / ratetol=1.0 / rceq='blurCplx^(1-qComp)' / qcomp=1.00 / qpmin=10 / qpmax=51 / qpstep=4 / cplxblur=20.0 / qblur=0.5 / ip_ratio=1.40 / pb_ratio=1.16 / aq=2:0.80
Language : English
Default : Yes
Forced : No

Audio #1
ID : 2
Format : AC-3
Format/Info : Audio Coding 3
Mode extension : CM (complete main)
Format settings, Endianness : Big
Codec ID : A_AC3
Duration : 1h 44mn
Bit rate mode : Constant
Bit rate : 448 Kbps
Channel(s) : 6 channels
Channel positions : Front: L C R, Side: L R, LFE
Sampling rate : 48.0 KHz
Bit depth : 16 bits
Compression mode : Lossy
Stream size : 333 MiB (4%)
Title : AC3 5.1 448 kbps
Language : Russian
Default : Yes
Forced : No

Audio #2
ID : 3
Format : DTS
Format/Info : Digital Theater Systems
Mode : 16
Format settings, Endianness : Big
Codec ID : A_DTS
Duration : 1h 44mn
Bit rate mode : Constant
Bit rate : 1 510 Kbps
Channel(s) : 6 channels
Channel positions : Front: L C R, Side: L R, LFE
Sampling rate : 48.0 KHz
Bit depth : 24 bits
Compression mode : Lossy
Stream size : 1.10 GiB (13%)
Title : DTS 5.1 1536 kbps
Language : English
Default : No
Forced : No

Text #1
ID : 4
Format : UTF-8
Codec ID : S_TEXT/UTF8
Codec ID/Info : UTF-8 Plain Text
Language : Russian
Default : Yes
Forced : No

Text #2
ID : 5
Format : ASS
Codec ID : S_TEXT/ASS
Codec ID/Info : Advanced Sub Station Alpha
Compression mode : Lossless
Language : English
Default : No
Forced : No

Text #3
ID : 6
Format : ASS
Codec ID : S_TEXT/ASS
Codec ID/Info : Advanced Sub Station Alpha
Compression mode : Lossless
Language : Finnish
Default : No
Forced : No

Text #4
ID : 7
Format : ASS
Codec ID : S_TEXT/ASS
Codec ID/Info : Advanced Sub Station Alpha
Compression mode : Lossless
Language : French
Default : No
Forced : No

Text #5
ID : 8
Format : ASS
Codec ID : S_TEXT/ASS
Codec ID/Info : Advanced Sub Station Alpha
Compression mode : Lossless
Language : Romanian
Default : No
Forced : No

Text #6
ID : 9
Format : ASS
Codec ID : S_TEXT/ASS
Codec ID/Info : Advanced Sub Station Alpha
Compression mode : Lossless
Language : Spanish
Default : No
Forced : No

Text #7
ID : 10
Format : ASS
Codec ID : S_TEXT/ASS
Codec ID/Info : Advanced Sub Station Alpha
Compression mode : Lossless
Language : Swedish
Default : No
Forced : No

pb.wtf



Скачать Преступник через торрент http://pic.kartinco.top/images/6/e14e3.jpg Скачать фильм Преступник через торрент бесплантно в хорошем качестве Описание: Чудесный семьянин с грандиозным будущим теряет все, когда он случайно убивает ворвавшегося в его дом грабителя. По решению суда ... 10 10 12
Info! Золотая раздача, скачанное не засчитывается.
Торрент: Зарегистрирован [2014-06-17 07:05] · скачан: 102 раз
Статус: √ проверено
Размер: 8.28 GB
Как cкачать? Как скачать Преступник через торрент | qTorrent



Последний раз редактировалось: -Lexx- (2014-06-17 15:28), всего редактировалось 2 раз(а)

28-11-2019 20:33  

Отключить всю рекламу на сайте

17-06-2014 14:30 Преступник Скачать торрент  

А с грамматикой и пунктуацией что? Не дружим?

"Чудесный семьянин с грандиозным будущим теряет все, когда он случайно убивает грабителя, который ворвался в его дом. Суд присуждаем ему три года в тюрьме строгого режима, где правила общества больше не действуют. И начинается тюремный беспредел, где выживает сильнейший, главному герою приходиться быть всегда на чеку, чтобы не попасть в очередную драку."pb.wtf



17-06-2014 14:47 Преступник Скачать торрент  

romario1979 писал(а):

А с грамматикой и пунктуацией что? Не дружим?

"Чудесный семьянин с грандиозным будущим теряет все, когда он случайно убивает грабителя, который ворвался в его дом. Суд присуждаем ему три года в тюрьме строгого режима, где правила общества больше не действуют. И начинается тюремный беспредел, где выживает сильнейший, главному герою приходиться быть всегда на чеку, чтобы не попасть в очередную драку."

Восхищен Вашей внимательностью, о Учитель. Работа над ошибками проведена.pb.wtf



    Дорогой пользователь! Огромная просьба, поблагодарите релизера, оцените раздачу и оставьте свои комментарий, если Вы скачали Преступник через торрент бесплатно! Внесите свою лепту в развитие PiratBit!
    Комментировать посты могут только пользователи прошедшие не сложную регистрацию
    Показать сообщения:    

    Преступник через торрент
    Скачать бесплатно Преступник
    Преступник скачать торрент
    Преступник смотреть онлайн
    Cкачать фильм Преступник бесплатно
    Преступник скачать торрент в хорошем качестве
    Преступник смотреть онлайн бесплатно в хорошем качестве


    Вы не можете начинать темы
    Вы не можете отвечать на сообщения
    Вы не можете редактировать свои сообщения
    Вы не можете удалять свои сообщения
    Вы не можете голосовать в опросах
    Вы не можете прикреплять файлы к сообщениям
    Вы можете скачивать файлы