Ссылка на приватное зеркало нашего сайта всего за 1$. Внимание количество ограничено!!!

2 сезон

iTunes

1 сезон

1

iTunes

iTunes

iTunes

1 сезон

RePack

30

ИГРА 18+

pack

ВАЖНО

!!Акция!!

Alien_RageХит недели

RePack

MK11
pack

Забери бонус

RePack

jed

!!Акция!!

Alien_Rage

RePack

fifa19

RePack

Assassins Creed: Odyssey

RePack

NEED FOR SPEED™ PAYBACK

4 сезон

9 сезон

Бесстыжие 9 сезон

Все сериалы

все сериалы на PB.wtf

RePack

FAR CRY 5
  

Погружение / Сезон: 1 / Серии 1-4 из 4 (Александр Богуславский) [2013, Россия, триллер, фантастика, ужасы, HDTVRip] pb.wtf

Погружение через торрент pb.wtf

Размер: 2.46 GB | Добавлен: 6 лет 4 мес. назад | Торрент скачан:466 раз
Скачать  

18-06-2014 02:54 Погружение Скачать торрент  

Погружение
Год выпуска: 2013
Страна: Россия
Жанр: триллер, фантастика, ужасы
Продолжительность: ~00:43:45 (Серия)
Перевод: Не требуется
Субтитры: Нет
Режиссер: Александр Богуславский
Сценарий: Александра Примаченко, Евгений Даниленко, Кристина Вануни
Продюсер: Дмитрий Медников, Алексей Куренков, Дмитрий Паклин
Оператор: Кирилл Зоткин
Композитор: Сергей Курицын, Давид Сеспедес
В ролях:
Дмитрий Ендальцев, Никита Кукушкин, Риналь Мухаметов, Павел Мамонов, Евгений Антонов, Наталья Бардо, Надежда Борисова, Анна Халилулина
Описание:
Это история о дайверах, любителях найти что-то новенькое и неизвестное до сих пор. Игорь давно уже стал черным копателем, личностью с безумным желанием испытать новые и удивительные приключения, вместе с братом он решил отыскать один тайный карьер, в котором им может повезти и они возможно найдут следы древнего поселения. Когда это место наконец было найдено, ребята сразу приготовились к погружению, однако именно здесь героев ожидал странный и страшный сюрприз: в карьере оказалась непонятная и аномальная зона...
Рейтинг
kinopoisk.ru: 6.115 (206)
Качество: HDTVRip
Формат: AVI
Видео кодек: XviD
Аудио кодек: AC3
Видео: 1803 Кбит/сек, 720*384 (1,85:1), в 29,970 кадров/сек, MPEG-4 Visual (XviD)
Аудио: 192 Кбит/сек, 48,0 КГц, 16 бит, 2 канала, AC-3
Общее
Полное имя : D:\Фильмы\Погружение (2013) HDTVRip\Погружение - 04 серия.avi
Формат : AVI
Формат/Информация : Audio Video Interleave
Размер файла : 628 Мбайт
Продолжительность : 43 м.
Общий поток : 2006 Кбит/сек
Программа кодирования : VirtualDubMod 1.5.10.3 | www.virtualdub-fr.org || (build 2550/release)
Библиотека кодирования : VirtualDubMod build 2550/release

Видео
Идентификатор : 0
Формат : MPEG-4 Visual
Профиль формата : Advanced Simple@L5
Параметр BVOP формата : 1
Параметр QPel формата : Нет
Параметр GMC формата : Без точки перехода
Параметр матрицы формата : Default (MPEG)
Идентификатор кодека : XVID
Идентификатор кодека/Подсказка : XviD
Продолжительность : 43 м.
Битрейт : 1803 Кбит/сек
Ширина : 720 пикселей
Высота : 384 пикселя
Соотношение сторон : 1,85:1
Частота кадров : 29,970 кадров/сек
Цветовое пространство : YUV
Субдискретизация насыщенности : 4:2:0
Битовая глубина : 8 бит
Тип развёртки : Прогрессивная
Метод сжатия : С потерями
Бит/(Пиксели*Кадры) : 0.218
Размер потока : 564 Мбайт (90%)
Библиотека кодирования : XviD 73

Аудио
Идентификатор : 1
Формат : AC-3
Формат/Информация : Audio Coding 3
Расширение режима : CM (complete main)
Параметр Endianness формата : Big
Идентификатор кодека : 2000
Продолжительность : 43 м.
Вид битрейта : Постоянный
Битрейт : 192 Кбит/сек
Каналы : 2 канала
Расположение каналов : Front: L R
Частота : 48,0 КГц
Битовая глубина : 16 бит
Метод сжатия : С потерями
Размер потока : 60,1 Мбайт (10%)
Выравнивание : Разделение по промежуткам
Продолжительность промежутка : 33 мс. (1,00 видеокадр)
Время предзагрузки промежутка : 500 мс.

скриншот   скриншот   скриншот   скриншот   скриншот   скриншот   скриншот   скриншот   скриншот   скриншот  

pb.wtf



Скачать Погружение через торрент http://pic.kartinco.top/images/6/56pnj.jpg Скачать фильм Погружение через торрент бесплантно в хорошем качестве Описание:Это история о дайверах, любителях найти что-то новенькое и неизвестное до сих пор. Игорь давно уже стал черным копателем, ... 9.1 10 13
Info! Золотая раздача, скачанное не засчитывается.
Торрент: Зарегистрирован [2014-06-18 02:54] · скачан: 466 раз
Статус: √ проверено
Размер: 2.46 GB
Как cкачать? Как скачать Погружение через торрент | qTorrent

28-11-2019 20:33  

Отключить всю рекламу на сайте

    Дорогой пользователь! Огромная просьба, поблагодарите релизера, оцените раздачу и оставьте свои комментарий, если Вы скачали Погружение через торрент бесплатно! Внесите свою лепту в развитие PiratBit!
    Комментировать посты могут только пользователи прошедшие не сложную регистрацию
    Показать сообщения:    

    Погружение через торрент
    Скачать бесплатно Погружение
    Погружение скачать торрент
    Погружение смотреть онлайн
    Cкачать фильм Погружение бесплатно
    Погружение скачать торрент в хорошем качестве
    Погружение смотреть онлайн бесплатно в хорошем качестве


    Вы не можете начинать темы
    Вы не можете отвечать на сообщения
    Вы не можете редактировать свои сообщения
    Вы не можете удалять свои сообщения
    Вы не можете голосовать в опросах
    Вы не можете прикреплять файлы к сообщениям
    Вы можете скачивать файлы