Ссылка на приватное зеркало нашего сайта всего за 1$. Внимание количество ограничено!!!

2 сезон

iTunes

1 сезон

1

iTunes

iTunes

iTunes

1 сезон

RePack

30

ИГРА 18+

pack

ВАЖНО

!!Акция!!

Alien_RageХит недели

RePack

MK11
pack

Забери бонус

RePack

jed

!!Акция!!

Alien_Rage

RePack

fifa19

RePack

Assassins Creed: Odyssey

RePack

NEED FOR SPEED™ PAYBACK

4 сезон

9 сезон

Бесстыжие 9 сезон

Все сериалы

все сериалы на PB.wtf

RePack

FAR CRY 5
  

Привычка расставаться (Екатерина Телегина) [2013 г., Комедия, Мелодрама, DVDRip-AVC, Оригинал (Лицензия)] pb.wtf

Привычка расставаться через торрент pb.wtf

Размер: 1.58 GB | Добавлен: 6 лет 4 мес. назад | Торрент скачан:630 раз
Скачать  

05-11-2013 11:51 Привычка расставаться Скачать торрент  


Привычка расставаться«Как найти свою любовь?»
Информация:
Год выпуска: 2013
Страна: Россия
Жанр: Комедия, Мелодрама
Продолжительность: 01:19:26
Перевод: Оригинал [Лицензия]
Режиссер: Екатерина Телегина
В ролях: Алёна Константинова, Данила Козловский, Елизавета Боярская, Полина Филоненко, Александра Тюфтей, Александр Петров, Алексей Филимонов, Петр Рыков, Карло Лаванья, Пётр Фёдоров, Артур Смольянинов, Родион Галюченко, Вера Строкова, Никита Дюбанов, Александр Вдовин, Мария Ивакова...
Описание:
История о девушке, которая не может устроить свою личную жизнь. В поисках ответа, почему все ее отношения не сложились, она решает встретиться со всеми своими бывшими и спросить у них, что они думают по этому поводу. Найдет ли она ответ на свой вопрос? Нет. Найдет ли она свою любовь? Конечно, да!
Качество: DVDRip-AVC | DVD5 R5 | Автор рипа: XLASER
Формат: MKV
Видео кодек: AVC
Аудио кодек: AC3
Видео: AVC at 2400 Кбит/сек 720 x 576 (1.738) at 25.000 fps
Аудио: AC-3 at 448 Кбит/сек 6 каналов, 48,0 КГц ru


Код:

Формат                                   : Matroska
Версия формата                           : Version 2
Размер файла                             : 1,58 Гбайт
Продолжительность                        : 1 ч. 19 м.
Общий поток                              : 2847 Кбит/сек
Программа кодирования                    : XviD4PSP 6.0 / 54.29.105
Библиотека кодирования                   : XviD4PSP 6.0 / 54.29.105

Видео
Идентификатор                            : 1
Формат                                   : AVC
Формат/Информация                        : Advanced Video Codec
Профиль формата                          : High@L4.1
Параметр CABAC формата                   : Да
Параметр ReFrames формата                : 3 кадра
Идентификатор кодека                     : V_MPEG4/ISO/AVC
Продолжительность                        : 1 ч. 19 м.
Битрейт                                  : 2400 Кбит/сек
Ширина                                   : 720 пикселей
Высота                                   : 576 пикселей
Соотношение сторон                       : 1,738
Режим частоты кадров                     : Постоянный
Частота кадров                           : 25,000 кадров/сек
Стандарт вещания                         : PAL
Цветовое пространство                    : YUV
Субдискретизация насыщенности            : 4:2:0
Битовая глубина                          : 8 бит
Тип развёртки                            : Прогрессивная
Бит/(Пиксели*Кадры)                      : 0.231
Размер потока                            : 1,30 Гбайт (82%)
Библиотека кодирования                   : x264 core 128 r2216M 198a7ea
Настройки программы                      : cabac=1 / ref=3 / deblock=1:0:0 / analyse=0x3:0x133 / me=dia / subme=5 / psy=1 / psy_rd=1.00:0.20 / mixed_ref=1 / me_range=16 / chroma_me=1 / trellis=0 / 8x8dct=1 / cqm=0 / deadzone=21,11 / fast_pskip=1 / chroma_qp_offset=0 / threads=3 / lookahead_threads=1 / sliced_threads=0 / nr=0 / decimate=1 / interlaced=0 / bluray_compat=0 / constrained_intra=0 / bframes=3 / b_pyramid=1 / b_adapt=0 / b_bias=0 / direct=3 / weightb=1 / open_gop=0 / weightp=0 / keyint=250 / keyint_min=25 / scenecut=40 / intra_refresh=0 / rc_lookahead=40 / rc=2pass / mbtree=1 / bitrate=2400 / ratetol=1.0 / qcomp=0.60 / qpmin=10 / qpmax=51 / qpstep=4 / cplxblur=20.0 / qblur=0.5 / ip_ratio=1.40 / aq=1:1.00
Default                                  : Да
Forced                                   : Нет

Аудио
Идентификатор                            : 2
Формат                                   : AC-3
Формат/Информация                        : Audio Coding 3
Расширение режима                        : CM (complete main)
Параметр Endianness формата              : Big
Идентификатор кодека                     : A_AC3
Продолжительность                        : 1 ч. 19 м.
Вид битрейта                             : Постоянный
Битрейт                                  : 448 Кбит/сек
Каналы                                   : 6 каналов
Расположение каналов                     : Front: L C R, Side: L R, LFE
Частота                                  : 48,0 КГц
Битовая глубина                          : 16 бит
Метод сжатия                             : С потерями
Задержка видео                           : 27 мс.
Размер потока                            : 255 Мбайт (16%)
Язык                                     : Russian
Default                                  : Да
Forced                                   : Нет


скриншот   скриншот   скриншот   скриншот   скриншот  
pb.wtf



Скачать Привычка расставаться через торрент http://i3.imageban.ru/out/2013/11/05/1efc8af8ef59966d5c5ea6d12048eef3.png Скачать фильм Привычка расставаться через торрент бесплантно в хорошем качестве Описание: История о девушке, которая не может устроить свою личную жизнь. В поисках ответа, почему все ее отношения не сложились, она ... 9.2 10 20
Торрент: Зарегистрирован [2014-06-18 08:11] · скачан: 630 раз
Статус: √ проверено
Размер: 1.58 GB
Как cкачать? Как скачать Привычка расставаться через торрент | qTorrent

% Раздел Тема Автор DL S | L
Наши фильмы (DVD фильмы) [ 3.77 GB ] Привычка расставаться [2013 DVD5] R5 voovaz Скачать
1 | 0

28-11-2019 20:33  

Отключить всю рекламу на сайте

05-11-2013 13:21 Привычка расставаться Скачать торрент  

Идиотский фильм про обычную шлюху.pb.wtf



18-06-2014 08:43 Привычка расставаться Скачать торрент  

makcimka80 писал(а):

Идиотский фильм про обычную шлюху.

пока не смотрел , но логика я так понимаю у вас такая- трахаешь все что движется, желательно каждый день, то вы САМЕЦ , для женщины это уже шлюха.pb.wtf



18-06-2014 10:08 Привычка расставаться Скачать торрент  

MalekUA писал(а):

makcimka80 писал(а):

Идиотский фильм про обычную шлюху.

пока не смотрел , но логика я так понимаю у вас такая- трахаешь все что движется, желательно каждый день, то вы САМЕЦ , для женщины это уже шлюха.

Какая логика,это ведь так в жизни и есть.pb.wtf



    Дорогой пользователь! Огромная просьба, поблагодарите релизера, оцените раздачу и оставьте свои комментарий, если Вы скачали Привычка расставаться через торрент бесплатно! Внесите свою лепту в развитие PiratBit!
    Комментировать посты могут только пользователи прошедшие не сложную регистрацию
    Показать сообщения:    

    Привычка расставаться через торрент
    Скачать бесплатно Привычка расставаться
    Привычка расставаться скачать торрент
    Привычка расставаться смотреть онлайн
    Cкачать фильм Привычка расставаться бесплатно
    Привычка расставаться скачать торрент в хорошем качестве
    Привычка расставаться смотреть онлайн бесплатно в хорошем качестве


    Вы не можете начинать темы
    Вы не можете отвечать на сообщения
    Вы не можете редактировать свои сообщения
    Вы не можете удалять свои сообщения
    Вы не можете голосовать в опросах
    Вы не можете прикреплять файлы к сообщениям
    Вы можете скачивать файлы