новый адрес
Ссылка на приватное зеркало всего за 1$. Внимание количество ограничено!!!

iTunes

1+1

iTunes

мы

WEB-DL

1

iTunes

Чернобыль

iTunes

Ральф против интернета

Лицензия

ПШазам

Лицензия

Оно 2

Лицензия

30
pack

Вам бонус

ВАЖНО

!!Акция!!

Alien_RageХит недели

RePack

Resident Evil 21

ИГРА 18+

pack

RePack

jed

!!Акция!!

Alien_Rage

RePack

fifa19

RePack

Assassins Creed: Odyssey

RePack

NEED FOR SPEED™ PAYBACK

3 сезон

9 сезон

Бесстыжие 9 сезон

Все сериалы

все сериалы на PB.wtf

RePack

FAR CRY 5
Ребята, катастрофически не хватает 1900р. для оплаты серверов за Октябрь (всвязи с блокировками трафик упал в 3 раза), 1-2р., выручайте.
  

Выживут только любовники / Only Lovers Left Alive (Джим Джармуш) [2013 г., фантастика, триллер, драма, HDRip, Дубляж] [НТВ+] pb.wtf

Выживут только любовники через торрент pb.wtf

Размер: 1.46 GB | Добавлен: 5 лет 5 мес. назад | Торрент скачан:603 раза
Скачать  

18-06-2014 09:14 Выживут только любовники Скачать торрент  

Выживут только любовники / Only Lovers Left Alive

Год выпуска: 2013
Страна: Великобритания, Германия, Франция, Кипр, США
Выпущено: Pandora Filmproduktion GmbH
Жанр: фантастика, триллер, драма
Продолжительность: 02:03:15
Перевод: Дубляж [НТВ+]

Режиссер: Джим Джармуш
Продюссер: Рейнхард Брюндиг, Джереми Томас, Закария Алауи
Сценарий: Джим Джармуш
Бюджет: $7 000 000
Премьера в мире: 25 мая 2013

IMDB 7.60 (15 969)


В ролях: Тильда Суинтон, Том Хиддлстон, Антон Ельчин, Миа Васиковска, Джон Хёрт, Джеффри Райт, Слиман Дази, Картер Логан, Орели Тепо, Али Эмин, Любовь Германова, Илья Исаев, Антон Эльдаров, Вероника Саркисова, Александр Груздев

Описание: История древних вампиров Адама и Евы, которые видели ещё татаро-монгольское иго и инквизиции. Адам — рокер из Детройта, играющий андеграунд-музыку. Он уже очень старый, он хочет тишины, покоя, и тихо ненавидит «зомби» (так вампиры зовут людей). Ева же — напротив, весьма жизнерадостная вампирелла постарше, общающаяся с поэтом времён Шекспира, Кристофером Марло, и живущая в Танжере. Она приезжает вытаскивать своего любовника из пучины депрессии. Но идиллию нарушает внезапно заявляющаяся младшая сестра Евы — Ава. Исход ситуации предсказать не в силах никто — выживут только любовники?

Качество: HDRip
Формат: AVI
Видео кодек: XviD
Аудио кодек: AC3
Видео: XviD, 1303 Кбит/с, 720x384, 23.976 fps
Аудио: AC3, 6 ch, 384 Кбит/с, 48.0 KHz
General
Complete name : /home/sb753/files/Vyzhivut.toljko.lyubovniki.2013.D.HDRip.1400MB.avi
Format : AVI
Format/Info : Audio Video Interleave
File size : 1.46 GiB
Duration : 2h 3mn
Overall bit rate : 1 697 Kbps
Writing application : VirtualDubMod 1.5.10.2 (build 2540/release)
Writing library : VirtualDubMod build 2540/release

Video
ID : 0
Format : MPEG-4 Visual
Format profile : Advanced Simple@L5
Format settings, BVOP : 2
Format settings, QPel : No
Format settings, GMC : No warppoints
Format settings, Matrix : Default (MPEG)
Codec ID : XVID
Codec ID/Hint : XviD
Duration : 2h 3mn
Bit rate : 1 304 Kbps
Width : 720 pixels
Height : 384 pixels
Display aspect ratio : 1.85:1
Frame rate : 23.976 fps
Color space : YUV
Chroma subsampling : 4:2:0
Bit depth : 8 bits
Scan type : Progressive
Compression mode : Lossy
Bits/(Pixel*Frame) : 0.197
Stream size : 1.12 GiB (77%)
Writing library : XviD 1.2.1 (UTC 2008-12-04)

Audio
ID : 1
Format : AC-3
Format/Info : Audio Coding 3
Mode extension : CM (complete main)
Format settings, Endianness : Big
Codec ID : 2000
Duration : 2h 3mn
Bit rate mode : Constant
Bit rate : 384 Kbps
Channel(s) : 6 channels
Channel positions : Front: L C R, Side: L R, LFE
Sampling rate : 48.0 KHz
Bit depth : 16 bits
Compression mode : Lossy
Stream size : 339 MiB (23%)
Alignment : Split accross interleaves
Interleave, duration : 42 ms (1.00 video frame)
Interleave, preload duration : 500 ms
pb.wtf



Скачать Выживут только любовники через торрент http://pic.kartinco.top/images/6/wxpb7.jpg Скачать фильм Выживут только любовники через торрент бесплантно в хорошем качестве Описание: История древних вампиров Адама и Евы, которые видели ещё татаро-монгольское иго и инквизиции. Адам — рокер из Детройта, играющий ... 8.7 10 15
Торрент: Зарегистрирован [2014-06-18 09:14] · скачан: 603 раз
Статус: √ проверено
Размер: 1.46 GB
Как cкачать? Как скачать Выживут только любовники через торрент | qTorrent

% Раздел Тема Автор DL S | L
Фильмы [HD 720p, 1080p] (Хороший звук DUB, MVO) [ 7.93 GB ] Выживут только любовники / Only Lovers Left Alive [2013 BDRip 1080p от еnvy / NNNB] DUB еnvy Скачать
13 | 1
Фильмы [HD 720p, 1080p] (Хороший звук DUB, MVO) [ 10.93 GB ] Выживут только любовники / Only Lovers Left Alive [2013 Германия Греция BDRip 720p] + 2xAVO [Сербин Матвеев] + Original + Subs от R.G. PiratFilms Messa-fan Скачать
1 | 0
Официальные cаундтреки к зарубежным фильмам [ 273 MB ] Выживут только любовники / Only Lovers Left Alive - 2014 FLAC lossless Messa-fan Скачать
1 | 0
Арт-хаус и авторское кино [ 2.05 GB ] Выживут только любовники / Only Lovers Left Alive [2013 HDRip ] [] Ворон Скачать
1 | 0
Фильмы с авторской озвучкой [ 2.04 GB ] Выживут только любовники / Only Lovers Left Alive [2013 HDRip Авторский одноголосый "А.Матвеев"] coc900 Скачать
1 | 0
Арт-хаус и авторское кино [ 1.46 GB ] Выживут только любовники / Only Lovers Left Alive [2013 HDRip ] [] Ворон Скачать
1 | 0
Арт-хаус и авторское кино [ 1.37 GB ] Выживут только любовники / Only Lovers Left Alive [2013 Германия SATRip [ ] Ворон Скачать
1 | 0

28-11-2019 20:33  

Отключить всю рекламу на сайте

18-06-2014 09:47 Выживут только любовники Скачать торрент  

Все-таки Том Хиддлстон очень отвратный в плане актерства. А так фильм хороший.pb.wtf



27-07-2014 18:52 Выживут только любовники Скачать торрент  

спокойный, добрый, красивый фильм как и всегда у Джармуша. Невозможно оторватьсяpb.wtf



06-09-2014 10:35 Выживут только любовники Скачать торрент  

Спасибо, посмотрим!!!pb.wtf



    Дорогой пользователь! Огромная просьба, поблагодарите релизера, оцените раздачу и оставьте свои комментарий, если Вы скачали Выживут только любовники через торрент бесплатно! Внесите свою лепту в развитие PiratBit!
    Комментировать посты могут только пользователи прошедшие не сложную регистрацию
    Показать сообщения:    

    Выживут только любовники через торрент
    Скачать бесплатно Выживут только любовники
    Выживут только любовники скачать торрент
    Выживут только любовники смотреть онлайн
    Cкачать фильм Выживут только любовники бесплатно
    Выживут только любовники скачать торрент в хорошем качестве
    Выживут только любовники смотреть онлайн бесплатно в хорошем качестве


    Вы не можете начинать темы
    Вы не можете отвечать на сообщения
    Вы не можете редактировать свои сообщения
    Вы не можете удалять свои сообщения
    Вы не можете голосовать в опросах
    Вы не можете прикреплять файлы к сообщениям
    Вы можете скачивать файлы