Ссылка на приватное зеркало всего за 1$. Внимание количество ограничено!!!

iTunes

iTunes

iTunes

1

iTunes

iTunes

iTunes

iTunes

iTunes

30
pack

$ от Little Big

ВАЖНО

!!Акция!!

Alien_RageХит недели

RePack

Resident Evil 21

ИГРА 18+

pack

RePack

jed

!!Акция!!

Alien_Rage

RePack

fifa19

RePack

Assassins Creed: Odyssey

RePack

NEED FOR SPEED™ PAYBACK

4 сезон

9 сезон

Бесстыжие 9 сезон

Все сериалы

все сериалы на PB.wtf

RePack

FAR CRY 5
  

Беспредел (Игорь Гостев) [1989 г., драма, криминал, DVDRip] pb.wtf

Беспредел через торрент pb.wtf

Размер: 1.46 GB | Добавлен: 6 лет назад | Торрент скачан:364 раза
Скачать  

18-06-2014 16:06 Беспредел Скачать торрент  

Беспредел
Год выпуска: 1989
Страна: СССР
Жанр: драма, криминал
Продолжительность: 01:36:25

Режиссер: Игорь Гостев
Сценарий: Игорь Гостев, Леонид Никитинский



В ролях:
Андрей Ташков(«Калган» Юрий Колганов), Антон Андросов( «Филателист» Виктор Мошкин), Александр Мохов(«Пархатый», «Сын Авраамов», «Абрашка»), Лев Дуров(майор Маркелов, «Кум» - начальник оперчасти ИТК), Александр Кузнецов(старший лейтенант Касимов), Виктор Павлов(начальник колонии, подполковник), Сергей Гармаш(«Могол»), Алексей Аблепихин( «Окунь»), Наиль Идрисов(«Пистон»), Михаил Жигалов(авторитет «Князь»), Александр Боровиков(«Поп» - Попов), Андрей Щербович-Вечер(«Калач», вор - «законник чёрной масти»), Ирина Аверина(Лена), Алексей Спирин(«Глиста»), Лев Поляков(«Хрипатый»), Александр Числов(«Мойдодыр»), Борис Юрченко(«Артист»), Геннадий Козырь(«Гудок»), Александр Коданев(«Толич» - Анатолий Голованов), Пётр Кононыхин(«Туз»), Олег Рогачёв(«Валдас»), Татьяна Агафонова(музыкантша-флейтистка), Виктор Косых(заключённый), Михаил Чигарев(майор с мегафоном), Андрей Гусев(подручный «Князя» в изоляторе)

Описание: В исправительной колонии царят жестокие порядки, установленные администрацией и поддерживаемые среди заключенных с помощью воров в законе. Воровская «элита» творит свой суд и расправу над непокорными.

Главный герой фильма не пожелал мириться с таким положение дел и вместе с несколькими заключенными, разделяющими его взгляды, попытался изменить беспросветную жизнь колонии. Противостояние двух неравных сил привело к бунту. Власти учинили новый беспредел и жестоко подавили стихийный протест заключенных…

Качество: DVDRip
Формат: AVI
Видео кодек: XviD
Аудио кодек: AC3
Видео: 656x512, (1,28:1), 25,000 кадров/сек, 1959 Кбит/сек, 0.233 бит/пикс
Аудио: 48,0 КГц, АС3, 2 канала, 192 Кбит/сек


скриншот   скриншот   скриншот   скриншот   скриншот   скриншот  
Общее
Полное имя : D:\загрузки\Беспредел.1989.avi
Формат : AVI
Формат/Информация : Audio Video Interleave
Размер файла : 1,46 Гбайт
Продолжительность : 1 ч. 36 м.
Общий поток : 2161 Кбит/сек
Режиссёр : zim2001
Программа кодирования : VirtualDubMod 1.5.10.2 (build 2540/release)

Видео
Идентификатор : 0
Формат : MPEG-4 Visual
Профиль формата : Advanced Simple@L5
Параметр BVOP формата : 2
Параметр QPel формата : Нет
Параметр GMC формата : Без точки перехода
Параметр матрицы формата : Выборочная
Идентификатор кодека : XVID
Идентификатор кодека/Подсказка : XviD
Продолжительность : 1 ч. 36 м.
Битрейт : 1959 Кбит/сек
Ширина : 656 пикселей
Высота : 512 пикселей
Соотношение сторон : 1,281
Частота кадров : 25,000 кадров/сек
Цветовое пространство : YUV
Субдискретизация насыщенности : 4:2:0
Битовая глубина : 8 бит
Тип развёртки : Прогрессивная
Метод сжатия : С потерями
Бит/(Пиксели*Кадры) : 0.233
Размер потока : 1,32 Гбайт (91%)
Библиотека кодирования : XviD 56

Аудио
Идентификатор : 1
Формат : AC-3
Формат/Информация : Audio Coding 3
Расширение режима : CM (complete main)
Параметр Endianness формата : Big
Идентификатор кодека : 2000
Продолжительность : 1 ч. 36 м.
Вид битрейта : Постоянный
Битрейт : 192 Кбит/сек
Каналы : 2 канала
Расположение каналов : Front: L R
Частота : 48,0 КГц
Битовая глубина : 16 бит
Метод сжатия : С потерями
Размер потока : 132 Мбайт (9%)
Выравнивание : Разделение по промежуткам
Продолжительность промежутка : 40 мс. (1,00 видеокадр)
Время предзагрузки промежутка : 500 мс.

pb.wtf



Скачать Беспредел через торрент http://pic.kartinco.top/images/6/2t5bs.jpg Скачать фильм Беспредел через торрент бесплантно в хорошем качестве Описание: В исправительной колонии царят жестокие порядки, установленные администрацией и поддерживаемые среди заключенных с помощью воров ... 9.7 10 18
Info! Золотая раздача, скачанное не засчитывается.
Торрент: Зарегистрирован [2014-06-18 16:06] · скачан: 364 раз
Статус: √ проверено
Размер: 1.46 GB
Как cкачать? Как скачать Беспредел через торрент | qTorrent

% Раздел Тема Автор DL S | L
Фильмы до 2000 г. [ 1.47 GB ] Беспредел / Off Limits [1988 военный BDRip] MVO DVO AVO Леонид Ильич Скачать
1 | 0
Наши новые фильмы 2018-2019 [ 1.37 GB ] Полицейский с Рублевки. Новогодний беспредел 2 [2019 WEB-DLRip] bober100 Скачать
5 | 0
Наши новые фильмы 2018-2019 [ 1.24 GB ] Полицейский с Рублевки. Новогодний беспредел 2 [2019 WEB-DLRip-AVC] bober100 Скачать
3 | 0
Наши фильмы (HD, WEB-DL 720p, 1080p) [ 1.8 GB ] Полицейский с Рублевки. Новогодний беспредел 2 [2019 WEB-DL 720p] bober100 Скачать
9 | 0
Наши новые фильмы 2018-2019 [ 1.37 GB ] Полицейский с Рублёвки. Новогодний беспредел [2018 WEB-DLRip] bober100 Скачать
3 | 0
Наши фильмы (HD, WEB-DL 720p, 1080p) [ 5.15 GB ] Полицейский с Рублёвки. Новогодний беспредел [2018 HDTV Оригинал] Бумер Скачать
4 | 0
Наши фильмы (HD, WEB-DL 720p, 1080p) [ 3.26 GB ] Полицейский с Рублёвки. Новогодний беспредел [2018 WEB-DL 1080p Оригинальный] Яйцеслав Скачать
8 | 0

28-11-2019 20:33  

Отключить всю рекламу на сайте

23-06-2014 13:50 Беспредел Скачать торрент  

как фильм?pb.wtf



15-07-2014 21:01 Беспредел Скачать торрент  

Про зону и про понятия!Фильм как раз даст понять что в такие места лучше не попадать.pb.wtf



    Дорогой пользователь! Огромная просьба, поблагодарите релизера, оцените раздачу и оставьте свои комментарий, если Вы скачали Беспредел через торрент бесплатно! Внесите свою лепту в развитие PiratBit!
    Комментировать посты могут только пользователи прошедшие не сложную регистрацию
    Показать сообщения:    

    Беспредел через торрент
    Скачать бесплатно Беспредел
    Беспредел скачать торрент
    Беспредел смотреть онлайн
    Cкачать фильм Беспредел бесплатно
    Беспредел скачать торрент в хорошем качестве
    Беспредел смотреть онлайн бесплатно в хорошем качестве


    Вы не можете начинать темы
    Вы не можете отвечать на сообщения
    Вы не можете редактировать свои сообщения
    Вы не можете удалять свои сообщения
    Вы не можете голосовать в опросах
    Вы не можете прикреплять файлы к сообщениям
    Вы можете скачивать файлы