новый адрес пиратбит piratbit
Мега распродажа FORZA HORIZON 4 ULTIMATE+ВСЕ DLC+ОНЛАЙН всего за 499р. 349 руб. (супер цена). Внимание количество ограничено!!!

iTunes

1+1

iTunes

мы

iTunes

1

iTunes

Чернобыль

iTunes

Ральф против интернета

Лицензия

ПШазам

Лицензия

Игра престолов

Лицензия

30
pack

ВАЖНО

!!Акция!!

Alien_RageХит недели

RePack

Resident Evil 21

ИГРА 18+

pack

RePack

Metro:Exodus

!!Акция!!

Alien_Rage

RePack

fifa19

RePack

Assassins Creed: Odyssey

RePack

NEED FOR SPEED™ PAYBACK

3 сезон

9 сезон

Бесстыжие 9 сезон

Все сериалы

все сериалы на PB.wtf

RePack

FAR CRY 5
Ребята, катастрофически не хватает 1900р. для оплаты серверов за Октябрь (всвязи с блокировками трафик упал в 3 раза), 1-2р., выручайте.
  

Погоня за жизнью / Chasing Life / Сезон: 1 / Серии 1-4 из ?? (Норман Бакли / Norman Buckley) [ 2014 , США , драма , WEB-DLRip(AVC) ] DVO (BaibaKo) pb.wtf

Погоня за жизнью через торрент pb.wtf

Размер: 2.37 GB | Добавлен: 5 лет 4 мес. назад | Торрент скачан:12 раз
Скачать  

19-06-2014 08:53 Погоня за жизнью Скачать торрент  

Погоня за жизнью / Chasing Life
Год выпуска: 2014
Страна: США
Жанр: драма
Продолжительность: ~00:45:02(Серия)
Перевод: Профессиональный (двухголосый)(BaibaKo)
Субтитры: Нет
Режиссер: Норман Бакли / Norman Buckley
Сценарий: Сузанна Фогель / Susanna Fogel, Джони Лефковитц / Joni Lefkowitz, Джошуа Сентер / Joshua Senter
Продюсер: Сузанна Фогель / Susanna Fogel, Michael Garcia, Дэвид Хартл / David Hartle, Аарон Каплан / Aaron Kaplan, Джони Лефковитц / Joni Lefkowitz
Оператор: Брэндон Мастрипполито / Brandon Mastrippolito, Шелли Джонсон / Shelly Johnson
В ролях:
Италиа Риччи (April), Мэри Пейдж Келлер (Sara), Хейли Рэмм (Brenna), Ребекка Шалл (Emma), Абхи Синха (Danny Gupta), Dylan Gelula (Ford), Августо Агилера (Kieran), Джессика Мераз (Natalie), Али Грант (Meg), Джастин Д’Аббраччо (Tyler), Карл Т. Райт (Dr. David Masters), Чути Тью (Lailani)
Мировая премьера: 10 июня 2014
Описание:
История молодой журналистки Эйприл Карвер, которая узнает, что неизлечимо больна. Её жизнь переворачивается с ног на голову. Это влияет на ее карьеру и семью. Ко всему прочему, она влюбляется в одного из сотрудников - Доминика.
Рейтинг
kinopoisk.ru: 7.800 (8)
Качество: WEB-DLRip(AVC)
Формат: MPEG-4
Видео кодек: AVC
Аудио кодек: AAC LC
Видео: 1536 Кбит/сек, 720*400 (16:9), в 23,976 кадра/сек, AVC
Аудио №1: Русский 192 Кбит/сек, 48,0 КГц, 2 канала, AAC (LC)
Аудио №2: Английский 192 Кбит/сек, 48,0 КГц, 2 канала, AAC (LC) Раздача ведётся путём добавления новых серийДобавлена 4 серия (09.07.2014)Просьба перекачать торрент файл

Внимание! Раздача ведётся путём добавления новых серий; при каждом добавлении создаётся новый торрент. Чтобы начать докачку новой серии, пользователям необходимо сделать следующее:
(1) остановить скачивание,
(2) удалить старый торрент у себя из клиента (старые серии удалять не надо),
(3) скачать новый торрент и запустить его у себя в клиенте вместо старого, при этом указать клиенту путь в старую папку куда и должно происходить скачивание новых серий.
Ваш клиент при этом должен произвести хеширование (проверку) старой папки (если не производит сам - помогите ему сделать это), и будет докачивать только те серии которых у вас ещё нет. Старые серии при этом не удаляются, а продолжают раздаваться!
Eсли вы уже удалили старые серии, то предотвратить повторную закачку старых серий можно, отжав галочку в соответсвующих местах при запуске нового торрента. По возможности, желательно не удалять старые серии как можно дольше чтобы релизёр не столько продолжал раздавать старые серии, а смог сконцентрироваться на новых.

Общее
Полное имя : D:\Фильмы\Погоня за жизнью(Сезон 1)2014\Chasing.Life.s01e01.WEB-DLRip.x264.Rus-Eng.BaibaKo.tv.mp4
Формат : MPEG-4
Профиль формата : Base Media
Идентификатор кодека : isom
Размер файла : 619 Мбайт
Продолжительность : 45 м.
Режим общего битрейта : Переменный
Общий поток : 1920 Кбит/сек
Дата кодирования : UTC 2014-06-18 11:51:28
Дата пометки : UTC 2014-06-18 11:51:28

Видео
Идентификатор : 1
Формат : AVC
Формат/Информация : Advanced Video Codec
Профиль формата : Baseline@L3.0
Параметр CABAC формата : Нет
Параметр ReFrames формата : 3 кадра
Идентификатор кодека : avc1
Идентификатор кодека/Информация : Advanced Video Coding
Продолжительность : 45 м.
Битрейт : 1536 Кбит/сек
Максимальный битрейт : 9887 Кбит/сек
Ширина : 720 пикселей
Высота : 400 пикселей
Соотношение сторон : 16:9
Режим частоты кадров : Переменный
Частота кадров : 23,976 кадра/сек
Минимальная частота кадров : 23,974 кадра/сек
Максимальная частота кадров : 23,981 кадра/сек
Цветовое пространство : YUV
Субдискретизация насыщенности : 4:2:0
Битовая глубина : 8 бит
Тип развёртки : Прогрессивная
Бит/(Пиксели*Кадры) : 0.222
Размер потока : 495 Мбайт (80%)
Библиотека кодирования : x264 core 130 r2273 b3065e6
Настройки программы : cabac=0 / ref=3 / deblock=1:0:0 / analyse=0x1:0x111 / me=hex / subme=7 / psy=1 / psy_rd=1.00:0.00 / mixed_ref=1 / me_range=16 / chroma_me=1 / trellis=1 / 8x8dct=0 / cqm=0 / deadzone=21,11 / fast_pskip=1 / chroma_qp_offset=-2 / threads=12 / lookahead_threads=2 / sliced_threads=0 / nr=0 / decimate=1 / interlaced=0 / bluray_compat=0 / constrained_intra=0 / bframes=0 / weightp=0 / keyint=240 / keyint_min=24 / scenecut=40 / intra_refresh=0 / rc_lookahead=40 / rc=2pass / mbtree=1 / bitrate=1536 / ratetol=1.0 / qcomp=0.60 / qpmin=0 / qpmax=69 / qpstep=4 / cplxblur=20.0 / qblur=0.5 / ip_ratio=1.40 / aq=1:1.00
Дата кодирования : UTC 2014-06-18 10:12:15
Дата пометки : UTC 2014-06-18 11:51:48
Основные цвета : BT.709
Характеристики трансфера : BT.709
Коэффициенты матрицы : BT.709

Аудио #1
Идентификатор : 2
Формат : AAC
Формат/Информация : Advanced Audio Codec
Профиль формата : LC
Идентификатор кодека : 67
Продолжительность : 45 м.
Вид битрейта : Переменный
Битрейт : 192 Кбит/сек
Максимальный битрейт : 196 Кбит/сек
Каналы : 2 канала
Расположение каналов : Front: L R
Частота : 48,0 КГц
Метод сжатия : С потерями
Размер потока : 61,0 Мбайт (10%)
Язык : Russian
Дата кодирования : UTC 2014-06-18 11:51:35
Дата пометки : UTC 2014-06-18 11:51:48

Аудио #2
Идентификатор : 3
Формат : AAC
Формат/Информация : Advanced Audio Codec
Профиль формата : LC
Идентификатор кодека : 67
Продолжительность : 45 м.
Вид битрейта : Переменный
Битрейт : 192 Кбит/сек
Максимальный битрейт : 197 Кбит/сек
Каналы : 2 канала
Расположение каналов : Front: L R
Частота : 48,0 КГц
Метод сжатия : С потерями
Размер потока : 61,0 Мбайт (10%)
Язык : English
Дата кодирования : UTC 2014-06-18 11:51:41
Дата пометки : UTC 2014-06-18 11:51:48

скриншот   скриншот   скриншот   скриншот   скриншот   скриншот   скриншот   скриншот   скриншот   скриншот  

pb.wtf



Скачать Погоня за жизнью через торрент http://pic.kartinco.top/images/6/ulznw.jpg Скачать фильм Погоня за жизнью через торрент бесплантно в хорошем качестве Описание:История молодой журналистки Эйприл Карвер, которая узнает, что неизлечимо больна. Её жизнь переворачивается с ног на голову. Это ... 7.5 10 2
Торрент: Зарегистрирован [2014-07-09 11:25] · скачан: 12 раз
Статус: √ проверено
Размер: 2.37 GB
Как cкачать? Как скачать Погоня за жизнью через торрент | qTorrent


>> Регистрируемся здесь <<






Отзывы и комментарии о схеме читаем и пишем здесь: ---> Отзывы и комментарии о схеме

Новые благодарочки в телеграм довольных пользователей:
скриншот   скриншот   скриншот   скриншот   скриншот
    Дорогой пользователь! Огромная просьба, поблагодарите релизера, оцените раздачу и оставьте свои комментарий, если Вы скачали Погоня за жизнью через торрент бесплатно! Внесите свою лепту в развитие PiratBit!
    Комментировать посты могут только пользователи прошедшие не сложную регистрацию
    Показать сообщения:    

    Погоня за жизнью через торрент
    Скачать бесплатно Погоня за жизнью
    Погоня за жизнью скачать торрент
    Погоня за жизнью смотреть онлайн
    Cкачать фильм Погоня за жизнью бесплатно
    Погоня за жизнью скачать торрент в хорошем качестве
    Погоня за жизнью смотреть онлайн бесплатно в хорошем качестве


    Вы не можете начинать темы
    Вы не можете отвечать на сообщения
    Вы не можете редактировать свои сообщения
    Вы не можете удалять свои сообщения
    Вы не можете голосовать в опросах
    Вы не можете прикреплять файлы к сообщениям
    Вы можете скачивать файлы