Ссылка на приватное зеркало нашего сайта всего за 1$. Внимание количество ограничено!!!

2 сезон

iTunes

1 сезон

1

iTunes

iTunes

iTunes

1 сезон

RePack

30

ИГРА 18+

pack

ВАЖНО

!!Акция!!

Alien_RageХит недели

RePack

MK11
pack

Забери бонус

RePack

jed

!!Акция!!

Alien_Rage

RePack

fifa19

RePack

Assassins Creed: Odyssey

RePack

NEED FOR SPEED™ PAYBACK

4 сезон

9 сезон

Бесстыжие 9 сезон

Все сериалы

все сериалы на PB.wtf

RePack

FAR CRY 5
  

Поле в Англии / A Field in England (Бен Уитли) [2013 г., ужасы, триллер, драма, HDRip, Любительский одноголосый] pb.wtf

Поле в Англии через торрент pb.wtf

Размер: 2.19 GB | Добавлен: 6 лет 4 мес. назад | Торрент скачан:60 раз
Скачать  

19-06-2014 16:45 Поле в Англии Скачать торрент  

Поле в Англии / A Field in England
Год выпуска: 2013
Страна: Великобритания / Film4, Rook Films
Жанр: ужасы, триллер, драма
Продолжительность: 01:30:16
Перевод: Любительский одноголосый (den904)

Режиссер: Бен Уитли

В ролях: Майкл Смайли, Рис Шерсмит, Джулиан Бэррэтт, Ричард Гловер, Питер Фердинандо, Райан Поуп, Сара Ди

Описание: Небольшой отряд дезертиров бежит от сражения через заросшее поле, где их берут в плен двое — О`Нил и Катлер. Алхимик О`Нил заставляет своих пленников помочь ему в поисках клада, который якобы зарыт где-то в этих местах.

Единственной пищей отряда становятся растущие здесь в изобилии грибы, которые погружают героев в атмосферу хаоса, насилия и паранойи. В то же время они постепенно начинают осознавать, что сокровищем этих мест может оказаться вовсе не золото, и что они стали жертвами ужасающей энергетики, заложниками этого места.

Качество: HDRip
Формат: AVI
Видео кодек: XviD
Аудио кодек: AC3
Видео: 720x304 (2.37:1), 24.000 fps, XviD build 50 ~3235 kbps avg, 0.62 bit/pixel
Аудио: 48 kHz, AC3 Dolby Digital, 2/0 (L,R) ch, ~224 kbps


Общее
Полное имя : H:\кино\A.Field.In.England.2013.HDRip.avi
Формат : AVI
Формат/Информация : Audio Video Interleave
Профиль формата : OpenDML
Размер файла : 2,19 Гбайт
Продолжительность : 1 ч. 30 м.
Общий поток : 3467 Кбит/сек
Программа кодирования : VirtualDubMod 1.5.10.3 | www.virtualdub-fr.org || (build 2550/release)
Библиотека кодирования : VirtualDubMod build 2550/release

Видео
Идентификатор : 0
Формат : MPEG-4 Visual
Профиль формата : Advanced Simple@L5
Параметр BVOP формата : 2
Параметр QPel формата : Нет
Параметр GMC формата : Без точки перехода
Параметр матрицы формата : Default (H.263)
Идентификатор кодека : XVID
Идентификатор кодека/Подсказка : XviD
Продолжительность : 1 ч. 30 м.
Битрейт : 3231 Кбит/сек
Ширина : 720 пикселей
Высота : 304 пикселя
Соотношение сторон : 2,35:1
Частота кадров : 24,000 кадра/сек
Цветовое пространство : YUV
Субдискретизация насыщенности : 4:2:0
Битовая глубина : 8 бит
Тип развёртки : Прогрессивная
Метод сжатия : С потерями
Бит/(Пиксели*Кадры) : 0.615
Размер потока : 2,04 Гбайт (93%)
Библиотека кодирования : XviD 1.2.1 (UTC 2008-12-04)

Аудио
Идентификатор : 1
Формат : AC-3
Формат/Информация : Audio Coding 3
Расширение режима : CM (complete main)
Параметр Endianness формата : Big
Идентификатор кодека : 2000
Продолжительность : 1 ч. 30 м.
Вид битрейта : Постоянный
Битрейт : 224 Кбит/сек
Каналы : 2 канала
Расположение каналов : Front: L R
Частота : 48,0 КГц
Битовая глубина : 16 бит
Метод сжатия : С потерями
Размер потока : 145 Мбайт (6%)
Выравнивание : Разделение по промежуткам
Продолжительность промежутка : 42 мс. (1,00 видеокадр)
Время предзагрузки промежутка : 500 мс.

pb.wtf



Скачать Поле в Англии через торрент http://pic.kartinco.top/images/6/ahgv2.jpg Скачать фильм Поле в Англии через торрент бесплантно в хорошем качестве Описание: Небольшой отряд дезертиров бежит от сражения через заросшее поле, где их берут в плен двое — О`Нил и Катлер. Алхимик О`Нил ... 10 10 3
Торрент: Зарегистрирован [2014-06-19 16:45] · скачан: 60 раз
Статус: T временная
Размер: 2.19 GB
Как cкачать? Как скачать Поле в Англии через торрент | qTorrent

% Раздел Тема Автор DL S | L
T Фильмы (Blu-ray, BD-Remux, HDDVD) [ 14.16 GB ] Поле в Англии / A Field in England [2013 история BD Remux] VO [den904] - ExKinoRay Mr. Grab Скачать
1 | 0


Последний раз редактировалось: coc900 (2016-11-02 17:29), всего редактировалось 1 раз

28-11-2019 20:33  

Отключить всю рекламу на сайте

19-06-2014 17:17 Поле в Англии Скачать торрент  

растущие здесь в изобилии грибы, которые погружают героев в атмосферу хаоса :omg:pb.wtf



20-06-2014 19:27 Поле в Англии Скачать торрент  

Как фильм?pb.wtf



    Дорогой пользователь! Огромная просьба, поблагодарите релизера, оцените раздачу и оставьте свои комментарий, если Вы скачали Поле в Англии через торрент бесплатно! Внесите свою лепту в развитие PiratBit!
    Комментировать посты могут только пользователи прошедшие не сложную регистрацию
    Показать сообщения:    

    Поле в Англии через торрент
    Скачать бесплатно Поле в Англии
    Поле в Англии скачать торрент
    Поле в Англии смотреть онлайн
    Cкачать фильм Поле в Англии бесплатно
    Поле в Англии скачать торрент в хорошем качестве
    Поле в Англии смотреть онлайн бесплатно в хорошем качестве


    Вы не можете начинать темы
    Вы не можете отвечать на сообщения
    Вы не можете редактировать свои сообщения
    Вы не можете удалять свои сообщения
    Вы не можете голосовать в опросах
    Вы не можете прикреплять файлы к сообщениям
    Вы можете скачивать файлы