2 сезон

iTunes

MVO

1

2 сезон

iTunes

iTunes

1 сезон

RePack

30

Ultimate

ВАЖНО

ИГРА 18+

pack

RePack

MK11
pack

Легкие деньги

RePack

jed

RePack

fifa19

RePack

RDR2

RePack

NEED FOR SPEED™ PAYBACK

4 сезон

9 сезон

Бесстыжие 9 сезон

Все сериалы

все сериалы на PB.wtf

RePack

FAR CRY 5

Anonymous, доброй ночи, мы не успеваем собрать деньги на оплату серверов за декабрь и январь, помогите нам пожалуйста в это трудное время. В качестве благодарности мы отключим Вам всю рекламу на сайте (укажите свой ник в строку Ваше имя)!

×
  
Magnet ссылка

С кем переспать?!! / The To Do List (Мэгги Кэри) [2013 г., комедия, HDRip, Дубляж] [студия "Пифагор"] pb.wtf

С кем переспать?!! через торрент pb.wtf

Размер: 1.37 GB | Добавлен: 6 лет 7 мес. назад | Торрент скачан:484 раза
Скачать  

19-06-2014 22:19 С кем переспать?!! Скачать торрент  

С кем переспать?!! / The To Do List

Год выпуска: 2013
Страна: США
Выпущено: 3 Arts Entertainment, The Mark Gordon Company
Жанр: комедия
Продолжительность: 01:44:53
Перевод: Дубляж [Студия "Пифагор"]

Режиссер: Мэгги Кэри
Продюссер: Марк Гордон, Том Лассалли, Брайан Роббинс
Сценарий: Мэгги Кэри
Бюджет: $1 500 000
Премьера в мире: 26 июля 2013

IMDB 5.80 (17 896)


В ролях: Обри Пласа, Джонни Симмонс, Билл Хейдер, Алиа Шокат, Сара Стил, Скотт Портер, Рэйчел Билсон, Кристофер Минц-Плассе, Энди Сэмберг, Дональд Гловер, Лина Иванова, Александр Дасевич, Сергей Смирнов

Описание: Действие комедии происходит в 90-е 20 века в американском пригороде. Выпускница школы пишет свой «список дел», которые надо завершить до перехода в колледж. Все пункты списка непристойны и направлены на обретение сексуального опыта. Но девушка мало понимает, как получить заветный опыт, и попадает в смешные ситуации.

Качество: HDRip
Формат: AVI
Видео кодек: XviD
Аудио кодек: AC3
Видео: XviD, 1425 Кбит/с, 720x400, 23.976 fps
Аудио: AC3, 6 ch, 384 Кбит/с, 48.0 KHz
General
Complete name : /home/sb753/files/S.kem.Perespat.2013.D.HDRip.1400Mb.avi
Format : AVI
Format/Info : Audio Video Interleave
File size : 1.37 GiB
Duration : 1h 43mn
Overall bit rate : 1 883 Kbps
Writing application : VirtualDubMod 1.5.10.2 (build 2540/release)
Writing library : VirtualDubMod build 2540/release

Video
ID : 0
Format : MPEG-4 Visual
Format profile : Advanced Simple@L5
Format settings, BVOP : 2
Format settings, QPel : No
Format settings, GMC : No warppoints
Format settings, Matrix : Custom
Codec ID : XVID
Codec ID/Hint : XviD
Duration : 1h 43mn
Bit rate : 1 426 Kbps
Width : 720 pixels
Height : 400 pixels
Display aspect ratio : 16:9
Frame rate : 23.976 fps
Color space : YUV
Chroma subsampling : 4:2:0
Bit depth : 8 bits
Scan type : Progressive
Compression mode : Lossy
Bits/(Pixel*Frame) : 0.206
Stream size : 1.03 GiB (76%)
Writing library : XviD 1.2.1 (UTC 2008-12-04)

Audio
ID : 1
Format : AC-3
Format/Info : Audio Coding 3
Mode extension : CM (complete main)
Format settings, Endianness : Big
Codec ID : 2000
Duration : 1h 43mn
Bit rate mode : Constant
Bit rate : 448 Kbps
Channel(s) : 6 channels
Channel positions : Front: L C R, Side: L R, LFE
Sampling rate : 48.0 KHz
Bit depth : 16 bits
Compression mode : Lossy
Stream size : 333 MiB (24%)
Alignment : Split accross interleaves
Interleave, duration : 42 ms (1.00 video frame)
Interleave, preload duration : 500 ms
pb.wtf



Скачать С кем переспать?!! через торрент https://pic.kartinco.top/images/6/us3bu.jpg Скачать фильм С кем переспать?!! через торрент бесплантно в хорошем качестве Описание: Действие комедии происходит в 90-е 20 века в американском пригороде. Выпускница школы пишет свой «список дел», которые надо ... 10 10 16
Торрент: Зарегистрирован [2014-06-19 22:19] · скачан: 484 раз
Статус: √ проверено
Размер: 1.37 GB
Как cкачать? Как скачать С кем переспать?!! через торрент | UTorrent

28-11-2019 20:33  

Отключить всю рекламу на сайте

20-06-2014 03:29 С кем переспать?!! Скачать торрент  

спасибо большое за фильмpb.wtf



    Дорогой пользователь! Огромная просьба, поблагодарите релизера, оцените раздачу и оставьте свои комментарий, если Вы скачали С кем переспать?!! через торрент бесплатно! Внесите свою лепту в развитие PiratBit!
    Комментировать посты могут только пользователи прошедшие не сложную регистрацию
    Показать сообщения:    

    С кем переспать?!! через торрент
    Скачать бесплатно С кем переспать?!!
    С кем переспать?!! скачать торрент
    С кем переспать?!! смотреть онлайн
    Cкачать фильм С кем переспать?!! бесплатно
    С кем переспать?!! скачать торрент в хорошем качестве
    С кем переспать?!! смотреть онлайн бесплатно в хорошем качестве


    Вы не можете начинать темы
    Вы не можете отвечать на сообщения
    Вы не можете редактировать свои сообщения
    Вы не можете удалять свои сообщения
    Вы не можете голосовать в опросах
    Вы не можете прикреплять файлы к сообщениям
    Вы можете скачивать файлы