2 сезон

iTunes

MVO

1

2 сезон

iTunes

iTunes

1 сезон

RePack

30

Ultimate

ВАЖНО

ИГРА 18+

pack

RePack

MK11
pack

Легкие деньги

RePack

jed

RePack

fifa19

RePack

RDR2

RePack

NEED FOR SPEED™ PAYBACK

4 сезон

9 сезон

Бесстыжие 9 сезон

Все сериалы

все сериалы на PB.wtf

RePack

FAR CRY 5

Anonymous, добрый вечер, мы не успеваем собрать деньги на оплату серверов за декабрь и январь, помогите нам пожалуйста в это трудное время. В качестве благодарности мы отключим Вам всю рекламу на сайте (укажите свой ник в строку Ваше имя)!

×
  
Magnet ссылка

+1 (Плюс один) / +1 (Дэннис Илиадис) [2013 г., триллер, фантастика, мелодрама, WEB-DLRip, Дубляж] [Студия "Пифагор"] pb.wtf

+1 через торрент pb.wtf

Размер: 1.37 GB | Добавлен: 6 лет 7 мес. назад | Торрент скачан:913 раз
Скачать  

19-06-2014 22:30 +1 Скачать торрент  

+1 (Плюс один) / +1

Год выпуска: 2013
Страна: США
Выпущено: Process Films, Process Productions
Жанр: триллер, фантастика, мелодрама
Продолжительность: 01:36:12
Перевод: Дубляж [Студия "Пифагор"]

Режиссер: Дэннис Илиадис
Продюссер: Тим Перелл, Гай Ботам, Бекки Глупчински
Сценарий: Билл Гулло, Дэннис Илиадис
Премьера в мире: 10 марта 2013

IMDB 5.60 (3041)


В ролях: Риз Уэйкфилд, Логан Миллер, Эшли Хиншоу, Сюзанн Денджел, Коллин Денджел, Натали Холл, Роэн Кимал, Адам Дэвид Томпсон, Рональд Огден, Бернард Джонс, Прохор Чеховской, Лина Иванова, Даниил Эльдаров, Кирилл Туранский, Евгения Ваган

Описание: Трое друзей из колледжа отправляются на главную вечеринку десятилетия. Каждый ищет там что-то свое: любовь, секс или новые знакомства. Но праздник превращается в хаос, когда по соседству с домом, где все веселятся, падает метеорит.

Качество: WEB-DLRip
Формат: AVI
Видео кодек: XviD
Аудио кодек: AC3
Видео: XviD, 1649 Кбит/с, 720x304, 23.976 fps, 0.314
Аудио: AC3, 6 ch, 384 Кбит/с, 48.0 KHz
General
Complete name : /home/sb753/files/Plus.1.2013.D.WEB-DLRip.1400MB.avi
Format : AVI
Format/Info : Audio Video Interleave
File size : 1.37 GiB
Duration : 1h 36mn
Overall bit rate : 2 043 Kbps
Genre : Thriller
Writing application : VirtualDubMod 1.5.10.3 | www.virtualdub-fr.org || (build 2550/release)
Writing library : VirtualDubMod build 2550/release
Original source form/Name : Movie
Copyright : http://intercinema.net

Video
ID : 0
Format : MPEG-4 Visual
Format profile : Advanced Simple@L5
Format settings, BVOP : 1
Format settings, QPel : No
Format settings, GMC : No warppoints
Format settings, Matrix : Default (MPEG)
Codec ID : DX50
Codec ID/Hint : DivX 5
Duration : 1h 36mn
Bit rate : 1 650 Kbps
Width : 720 pixels
Height : 304 pixels
Display aspect ratio : 2.35:1
Frame rate : 23.976 fps
Color space : YUV
Chroma subsampling : 4:2:0
Bit depth : 8 bits
Scan type : Progressive
Compression mode : Lossy
Bits/(Pixel*Frame) : 0.314
Stream size : 1.11 GiB (81%)
Writing library : XviD 1.2.1 (UTC 2008-12-04)

Audio
ID : 1
Format : AC-3
Format/Info : Audio Coding 3
Mode extension : CM (complete main)
Format settings, Endianness : Big
Codec ID : 2000
Duration : 1h 36mn
Bit rate mode : Constant
Bit rate : 384 Kbps
Channel(s) : 6 channels
Channel positions : Front: L C R, Side: L R, LFE
Sampling rate : 48.0 KHz
Bit depth : 16 bits
Compression mode : Lossy
Stream size : 264 MiB (19%)
Alignment : Split accross interleaves
Interleave, duration : 42 ms (1.00 video frame)
Interleave, preload duration : 500 ms
pb.wtf



Скачать +1 через торрент http://pic.kartinco.top/images/6/j8eje.jpg Скачать фильм +1 через торрент бесплантно в хорошем качестве Описание: Трое друзей из колледжа отправляются на главную вечеринку десятилетия. Каждый ищет там что-то свое: любовь, секс или новые ... 8.7 10 33
Торрент: Зарегистрирован [2014-06-19 22:30] · скачан: 913 раз
Статус: √ проверено
Размер: 1.37 GB
Как cкачать? Как скачать +1 через торрент | UTorrent

% Раздел Тема Автор DL S | L
Архиваторы и файловые менеджеры [ 2 MB ] RAR Recovery Toolbox 1.1.8.17 Retail ZipRecoveryToolbox v1.0.11.43 Retail Anonymous Скачать
2 | 0
Наши сериалы [ 16.72 GB ] Ментовские войны 1 2 3 4 Эпило Полная Коллекция [] aspace Скачать
1 | 0
Работа со звуком [ 2 MB ] MP3 Splitter & Joiner Pro 4.21.1 Anonymous Скачать
1 | 0
Графические редакторы [ 2.2 GB ] Adobe Photoshop CS4 Extended 11.0.1 paul08 Скачать
1 | 0
RTS (стратегии в реальном времени) [ 3.61 GB ] Red Alert 3 v 1.12 [RePack RU Electronic Arts] Shmel Скачать
2 | 0
Наши сериалы [ 5.48 GB ] Ликвидация [2007 DVDRip] DEVI Скачать
1 | 0
Сборники на DVD и Сиквелы [DVDrip, WEB-DLRip, HDrip, BDRip] [ 26.39 GB ] Семнадцать мгновений весны 1-12 Серия [1973 военная SATRip] paul08 Скачать
1 | 0

28-11-2019 20:33  

Отключить всю рекламу на сайте

20-06-2014 12:41 +1 Скачать торрент  

Ну как же без сисек)))pb.wtf



27-07-2014 18:21 +1 Скачать торрент  

необычный фильм, портит его только описание - уже не так неожиданно всё становится в немpb.wtf



    Дорогой пользователь! Огромная просьба, поблагодарите релизера, оцените раздачу и оставьте свои комментарий, если Вы скачали +1 через торрент бесплатно! Внесите свою лепту в развитие PiratBit!
    Комментировать посты могут только пользователи прошедшие не сложную регистрацию
    Показать сообщения:    

    +1 через торрент
    Скачать бесплатно +1
    +1 скачать торрент
    +1 смотреть онлайн
    Cкачать фильм +1 бесплатно
    +1 скачать торрент в хорошем качестве
    +1 смотреть онлайн бесплатно в хорошем качестве


    Вы не можете начинать темы
    Вы не можете отвечать на сообщения
    Вы не можете редактировать свои сообщения
    Вы не можете удалять свои сообщения
    Вы не можете голосовать в опросах
    Вы не можете прикреплять файлы к сообщениям
    Вы можете скачивать файлы