2 сезон

iTunes

MVO

1

2 сезон

iTunes

iTunes

1 сезон

RePack

30

Новинка

ВАЖНО

ИГРА 18+

pack

RePack

MK11
pack

Легкие деньги

RePack

jed

RePack

fifa19

RePack

RDR2

RePack

NEED FOR SPEED™ PAYBACK

4 сезон

9 сезон

Бесстыжие 9 сезон

Все сериалы

все сериалы на PB.wtf

RePack

FAR CRY 5

Anonymous, доброе утро, мы не успеваем собрать деньги на оплату серверов за декабрь и январь, помогите нам пожалуйста в это трудное время. В качестве благодарности мы отключим Вам всю рекламу на сайте (укажите свой ник в строку Ваше имя)!

×
  
Magnet ссылка

Жестокий ринг / Victor Young Perez (Жак Уаниш) [ 2013г., драма, биография, история, спорт, WEB-DLRip, Дубляж, Лицензия iTunes] pb.wtf

Жестокий ринг через торрент pb.wtf

Размер: 749 MB | Добавлен: 6 лет 6 мес. назад | Торрент скачан:363 раза
Скачать  

20-06-2014 07:51 Жестокий ринг Скачать торрент  

Жестокий ринг / Victor Young Perez
Страна: Болгария, Франция, Израиль
Год выпуска: 2014
Жанр: драма, биография, история, спорт
Перевод: Дубляж, iTunes
Продолжительность: 01:49:57

Режиссер: Жак Уаниш

В ролях: Брахим Аслум, Стив Суисса, Изабелла Орсини, Патрик Бушите, Дави Сарду, Брюс Пэйн, Pierre-Henri Toubas, Ромен Канонн, Алаа Омузун, Рома




Описание: Историческая драма, основанная на реальной истории Виктора Переса, который стал чемпионом мира по боксу в 1930-е годы в Париже и был женат на знаменитой французской актрисе. Из-за его еврейского происхождения он был депортирован в Освенцим…

Качество: WEB-DLRip
Формат: AVI
Видео кодек: XviD
Аудио кодек: MP3
Видео: 688x288 (2.39:1), 24.000 fps, XviD build 73 ~815 kbps avg, 0.17 bit/pixel
Аудио#1: 48 kHz, MPEG Layer 3, 2 ch, ~128.00 kbps avg
Релиз от: Deadmauvlad
скриншот   скриншот   скриншот   скриншот   скриншот   скриншот  

Общее
Полное имя : D:\Рипы выкладка [Deadmauvlad]\Рипы готовые\Victor.Young.Perez.2013.WEB-DLRip.Rus.Deadmauvlad.avi
Формат : AVI
Формат/Информация : Audio Video Interleave
Размер файла : 749 Мбайт
Продолжительность : 1 ч. 49 м.
Общий поток : 953 Кбит/сек
Название фильма : Victor.Young.Perez.2013.WEB-DLRip.Rus.Deadmauvlad
Режиссёр : Deadmauvlad
Жанр : Драма,приключения
Программа кодирования : VirtualDubMod 1.5.10.3 | www.virtualdub-fr.org || (build 2550/release)
Формат оригинала/Имя : Фильм
Правообладатель : Goldenshara

Видео
Идентификатор : 0
Формат : MPEG-4 Visual
Профиль формата : Advanced Simple@L5
Параметр BVOP формата : 1
Параметр QPel формата : Нет
Параметр GMC формата : Без точки перехода
Параметр матрицы формата : Выборочная
Идентификатор кодека : XVID
Идентификатор кодека/Подсказка : XviD
Продолжительность : 1 ч. 49 м.
Битрейт : 816 Кбит/сек
Ширина : 688 пикселей
Высота : 288 пикселей
Соотношение сторон : 2,40:1
Частота кадров : 24,000 кадра/сек
Цветовое пространство : YUV
Субдискретизация насыщенности : 4:2:0
Битовая глубина : 8 бит
Тип развёртки : Прогрессивная
Метод сжатия : С потерями
Бит/(Пиксели*Кадры) : 0.172
Размер потока : 641 Мбайт (86%)
Библиотека кодирования : XviD 73

Аудио
Идентификатор : 1
Формат : MPEG Audio
Версия формата : Version 1
Профиль формата : Layer 3
Идентификатор кодека : 55
Идентификатор кодека/Подсказка : MP3
Продолжительность : 1 ч. 49 м.
Вид битрейта : Постоянный
Битрейт : 128 Кбит/сек
Каналы : 2 канала
Частота : 48,0 КГц
Метод сжатия : С потерями
Размер потока : 101 Мбайт (13%)
Выравнивание : Соединение по промежуткам
Продолжительность промежутка : 42 мс. (1,00 видеокадр)
Время предзагрузки промежутка : 504 мс.
Библиотека кодирования : LAME3.99r
Настройки программы : -m s -V 4 -q 2 -lowpass 17 -b 128

pb.wtf



Скачать Жестокий ринг через торрент http://pic.kartinco.top/images/6/uw4oh.jpg Скачать фильм Жестокий ринг через торрент бесплантно в хорошем качестве Описание: Историческая драма, основанная на реальной истории Виктора Переса, который стал чемпионом мира по боксу в 1930-е годы в Париже и ... 8.3 10 6
Торрент: Зарегистрирован [2014-06-20 07:51] · скачан: 363 раз
Статус: √ проверено
Размер: 749 MB
Как cкачать? Как скачать Жестокий ринг через торрент | UTorrent

% Раздел Тема Автор DL S | L
Фильмы 2013 [DVDrip, WEB-DLRip, HDrip] [ 1.46 GB ] Жестокий ринг / Victor Young Perez [2013 Болгария Израиль биография история HDRip ][лицензия] Ворон Скачать
1 | 0
Фильмы (WEB-DL 720p, 1080p) [ 3.33 GB ] Жестокий ринг / Victor Young Perez [2013 Болгария Израиль биография история WEB-DL 720p [ ] KEYS Скачать
1 | 0


Последний раз редактировалось: Se7ven95 (2014-06-20 15:59), всего редактировалось 1 раз

28-11-2019 20:33  

Отключить всю рекламу на сайте

20-06-2014 12:28 Жестокий ринг Скачать торрент  

Длительность фильма какая ? Кто в Ролях присутствует ? Даже оформить по человечески не могут ...pb.wtf



    Дорогой пользователь! Огромная просьба, поблагодарите релизера, оцените раздачу и оставьте свои комментарий, если Вы скачали Жестокий ринг через торрент бесплатно! Внесите свою лепту в развитие PiratBit!
    Комментировать посты могут только пользователи прошедшие не сложную регистрацию
    Показать сообщения:    

    Жестокий ринг через торрент
    Скачать бесплатно Жестокий ринг
    Жестокий ринг скачать торрент
    Жестокий ринг смотреть онлайн
    Cкачать фильм Жестокий ринг бесплатно
    Жестокий ринг скачать торрент в хорошем качестве
    Жестокий ринг смотреть онлайн бесплатно в хорошем качестве


    Вы не можете начинать темы
    Вы не можете отвечать на сообщения
    Вы не можете редактировать свои сообщения
    Вы не можете удалять свои сообщения
    Вы не можете голосовать в опросах
    Вы не можете прикреплять файлы к сообщениям
    Вы можете скачивать файлы