Всегда рабочее зеркало без VPN и Proxy просто перед .vidak.icu напиши любое слово или цифру, Пример http://q5jt.vidak.icu

MVO

MVO

1 сезон

1

1 сезон

iTunes

1 сезон

13

1 сезон

Deluxe

pack

Рекомендуем

Repack

30

ВАЖНО

RePack

MK11

RePack

jed

RePack

fifa19

RePack

RDR2

RePack

NEED FOR SPEED™ PAYBACK

Кинопоиск HD

6 сезон

 Острые козырьки 6 сезон

Все сериалы

все сериалы на PB.wtf

RePack

FAR CRY 5
  
Magnet ссылка

Жестокое Завещание / Cruel Will (Артур Ромео / Arthur Romeo) [ 2013 , ужасы, триллер , WEB-DLRip ] DVO [DeadSno & den904] pb.wtf

Жестокое Завещание через торрент pb.wtf

Размер: 1.37 GB | Добавлен: 8 лет 1 мес. назад | Торрент скачан:150 раз
Смотреть онлайн Жестокое Завещание | Скачать    Ребята, помогите собрать деньги на оплату серверов!!!

20-06-2014 09:50 Жестокое Завещание Скачать торрент  

Жестокое Завещание / Cruel Will«Пепел к пеплу, прах к праху»
Год выпуска: 2013
Жанр: ужасы, триллер
Продолжительность: 01:36:02
Перевод: Любительский (двухголосый)[DeadSno & den904] - перевод на русский язык [МЕГАПЫХАРЬ] - работа со звуком [Гуннлауг]
Субтитры: Нет
Режиссер: Артур Ромео / Arthur Romeo
Продюсер: Chuck Chang, J.J. Dalton, Аарон Кинсер / Arron Kinser, Crystal Nobregas, Остин Филлипс / Austin Phillips
Оператор: Алекс Корнрайк / Alex Kornreich
Композитор: Дэйв Холден / Dave Holden
В ролях:
Аарон Кинсер (Paul), Марисса Пистон (Lily), Спенсер Гаррет (Fredrick), Гарри Дж. Ленникс (Dr. Frances), Даг Джонс (Adrian), Бренан Бейрд (Stephan Brookstone), Riley Bodenstab (Simon), Йонас Брэнман (Guardian), Сэл Каталано (Herbert), Эмили Чанг (Gina), Джесси Чеви (Cop), J.J. Dalton (Gordan Lovitz)
Мировая премьера: 30 декабря 2013
Описание:
Молодая пара давно живет вместе. Но однажды в их жизнь врывается умерший отец девушки. Вместе с прибытием урны с прахом отца, в доме восстают страшные тени прошлого, кошмары оживают и дают ответы на очень многие вопросы о том, что творится в этом городе. Последняя воля жестокого отца будет исполнена во что бы то ни стало.
Рейтинг
imdb.com: 5.90 (135)
Качество: WEB-DLRip
Формат: AVI
Видео кодек: XviD
Аудио кодек: AC3
Видео: 1837 Кбит/сек, 720*304 (2,35:1), в 23,976 кадра/сек, MPEG-4 Visual (XviD)
Аудио: 192 Кбит/сек, 48,0 КГц, 16 бит, 2 канала, AC-3
Общее
Полное имя : D:\Фильмы\Жестокое Завещание2013.avi
Формат : AVI
Формат/Информация : Audio Video Interleave
Размер файла : 1,37 Гбайт
Продолжительность : 1 ч. 36 м.
Общий поток : 2039 Кбит/сек
Программа кодирования : VirtualDubMod 1.5.10.3 | www.virtualdub-fr.org || (build 2550/release)
Библиотека кодирования : VirtualDubMod build 2550/release

Видео
Идентификатор : 0
Формат : MPEG-4 Visual
Профиль формата : Advanced [email protected]
Параметр BVOP формата : 1
Параметр QPel формата : Нет
Параметр GMC формата : Без точки перехода
Параметр матрицы формата : Выборочная
Идентификатор кодека : XVID
Идентификатор кодека/Подсказка : XviD
Продолжительность : 1 ч. 36 м.
Битрейт : 1837 Кбит/сек
Ширина : 720 пикселей
Высота : 304 пикселя
Соотношение сторон : 2,35:1
Частота кадров : 23,976 кадра/сек
Цветовое пространство : YUV
Субдискретизация насыщенности : 4:2:0
Битовая глубина : 8 бит
Тип развёртки : Прогрессивная
Метод сжатия : С потерями
Бит/(Пиксели*Кадры) : 0.350
Размер потока : 1,23 Гбайт (90%)
Библиотека кодирования : XviD 73

Аудио
Идентификатор : 1
Формат : AC-3
Формат/Информация : Audio Coding 3
Расширение режима : CM (complete main)
Параметр Endianness формата : Big
Идентификатор кодека : 2000
Продолжительность : 1 ч. 36 м.
Вид битрейта : Постоянный
Битрейт : 192 Кбит/сек
Каналы : 2 канала
Расположение каналов : Front: L R
Частота : 48,0 КГц
Битовая глубина : 16 бит
Метод сжатия : С потерями
Размер потока : 132 Мбайт (9%)
Выравнивание : Разделение по промежуткам
Продолжительность промежутка : 42 мс. (1,00 видеокадр)
Время предзагрузки промежутка : 500 мс.

скриншот   скриншот   скриншот   скриншот   скриншот   скриншот   скриншот   скриншот   скриншот   скриншот  

pb.wtf



Скачать Жестокое Завещание через торрент https://pic1.kartinco.top/images/61/i3z95.jpg Скачать, смотреть онлайн Жестокое Завещание бесплантно в хорошем качестве Описание:Молодая пара давно живет вместе. Но однажды в их жизнь врывается умерший отец девушки. Вместе с прибытием урны с прахом отца, в ... 9.4 10 10
Торрент: Зарегистрирован [2014-06-20 09:50] · скачан: 150 раз
Статус: T временная
Размер: 1.37 GB
Как cкачать? Как скачать Жестокое Завещание через торрент | UTorrent

28-11-2019 20:33  

Отключить вcю реклaмy на сайте

20-06-2014 16:22 Жестокое Завещание Скачать торрент  

Описание: звучит заманчиво надо посмотреть [th] [/th]pb.wtf



21-06-2014 05:20 Жестокое Завещание Скачать торрент  

кто уже посмотрел??как вам ????? а то я уже и Чаки и Фреди и классику про оборотней и вампиров пересмотрела...............потому что больше смотреть не чего это хоть каплю внимания стоит? хотя похоже нет....pb.wtf



    Дорогой пользователь! Огромная просьба, поблагодарите релизера, оцените раздачу и оставьте свои комментарий, если Вы скачали Жестокое Завещание через торрент бесплатно!
    Комментировать посты могут только пользователи прошедшие не сложную регистрацию
    Показать сообщения:    

    Жестокое Завещание через торрент
    Скачать бесплатно Жестокое Завещание
    Жестокое Завещание скачать торрент
    Жестокое Завещание смотреть онлайн
    Cкачать фильм Жестокое Завещание бесплатно
    Жестокое Завещание скачать торрент в хорошем качестве
    Жестокое Завещание смотреть онлайн бесплатно в хорошем качестве


    Вы не можете начинать темы
    Вы не можете отвечать на сообщения
    Вы не можете редактировать свои сообщения
    Вы не можете удалять свои сообщения
    Вы не можете голосовать в опросах
    Вы не можете прикреплять файлы к сообщениям
    Вы можете скачивать файлы