2 сезон

iTunes

MVO

1

2 сезон

iTunes

1 сезон

1 сезон

RePack

30

Новинка

ВАЖНО

ИГРА 18+

pack

RePack

MK11
pack

Легкие деньги

RePack

jed

RePack

fifa19

RePack

RDR2

RePack

NEED FOR SPEED™ PAYBACK

4 сезон

9 сезон

Бесстыжие 9 сезон

Все сериалы

все сериалы на PB.wtf

RePack

FAR CRY 5

Anonymous, добрый день, мы не успеваем собрать деньги на оплату серверов за декабрь и январь, помогите нам пожалуйста в это трудное время. В качестве благодарности мы отключим Вам всю рекламу на сайте (укажите свой ник в строку Ваше имя)!

×
  
Magnet ссылка

Прогулки с динозаврами 3D / Walking with Dinosaurs 3D (Бэрри Кук, Нил Найтингейл) [2013 г., Семейный, BDRip 1080p, Дубляж, Лицензия] Анаглиф (Дюбуа) pb.wtf

Прогулки с динозаврами 3D через торрент pb.wtf

Размер: 6.05 GB | Добавлен: 6 лет 7 мес. назад | Торрент скачан:325 раз
Скачать  

20-06-2014 17:31 Прогулки с динозаврами 3D Скачать торрент  

Прогулки с динозаврами 3D / Walking with Dinosaurs 3D
Год выпуска: 2013
Страна: США, Великобритания, Индия
Жанр: Семейный
Продолжительность: 01:27:31
Перевод: Дубляж, Лицензия

Режиссер: Бэрри Кук, Нил Найтингейл
Продюссер: Майк Дэвлин, Люк Хетерингтон, Аманда Хилл,
Сценарий: Джон Колли

Бюджет: $80 000 000
Премьера в мире: 14 декабря 2013



В ролях: Чарли Роу (Ricky), Карл Урбан (Uncle Zack), Ангури Райс (Jade), Джон Легуизамо (Alex, озвучка), Джастин Лонг (Patchi, озвучка), Скайлер Стоун (Scowler, озвучка), Тия Сиркар (Juniper, озвучка), Клэй Сэвадж (Radio Announcer, озвучка), Джуд Тинсели (озвучка), Мэри Мэтилин Маусер (озвучка), Кэти Силверман (озвучка), Мэдисон Моэллерс (озвучка), Майкл Леоне (озвучка)
Роли дублировали: Ульяна Иващенко, Пётр Иващенко

Описание: «Прогулки с динозаврами» — это увлекательное путешествие с полным погружением в 3D-реальность, созданную по инновационной технологии CGI. Мы увидим, как выглядели динозавры, как они жили и с какими опасностями им пришлось столкнуться. Главный герой истории — храбрый динозаврик Патчи, он самый маленький в семье, но именно ему предстоит стать лидером и спасти своих сородичей.

Доп. информация: Формат 3D: Анаглиф (Дюбуа)



Качество: BDRip 1080p
Формат: MKV
Видео кодек: H.264
Аудио кодек: AC3
Видео: x264, 1920 x 1080 (16:9), 8180 kbps, 23,976 fps, ( 0.165 bpp)
Аудио#1: Русский / AC3 / 48 KHz / 5.1 ch / 640 Kbps (Дубляж - BD 3D)
Аудио#2: Украинский / AC3 / 48 KHz / 5.1 ch / 448 Kbps (Дубляж - BD 3D)
Аудио#3: Английский / AC3 / 48 KHz / 5.1 ch / 640 Kbps (Original - BD 3D)

скриншот   скриншот   скриншот   скриншот   скриншот   скриншот  
Общее
Уникальный идентификатор : 193576425542188540029826551722619265675 (0x91A176A485C511A2B1D47B0ED309628B)
Полное имя : E:\Walking.With.Dinosaurs(2013)3D(Anaglyph_Dubois)Crop.mkv
Формат : Matroska
Версия формата : Version 4 / Version 2
Размер файла : 6,05 Гбайт
Продолжительность : 1 ч. 27 м.
Общий поток : 9904 Кбит/сек
Название фильма : Прогулки с динозаврами 3D / Walking with Dinosaurs 3D (2013) (Anaglyph_Dubois)(CROP)
Дата кодирования : UTC 2014-06-20 15:41:02
Программа кодирования : mkvmerge v6.2.0 ('Promised Land') built on Apr 28 2013 12:22:01
Библиотека кодирования : libebml v1.3.0 + libmatroska v1.4.0

Видео
Идентификатор : 1
Формат : AVC
Формат/Информация : Advanced Video Codec
Профиль формата : High@L4.1
MultiView_Count : 2
MultiView_Layout : Anaglyph (cyan/red)
Параметр CABAC формата : Да
Параметр ReFrames формата : 4 кадра
Идентификатор кодека : V_MPEG4/ISO/AVC
Продолжительность : 1 ч. 27 м.
Битрейт : 8180 Кбит/сек
Ширина : 1920 пикселей
Высота : 1080 пикселей
Соотношение сторон : 16:9
Режим частоты кадров : Постоянный
Частота кадров : 23,976 кадра/сек
Цветовое пространство : YUV
Субдискретизация насыщенности : 4:2:0
Битовая глубина : 8 бит
Тип развёртки : Прогрессивная
Бит/(Пиксели*Кадры) : 0.165
Размер потока : 4,88 Гбайт (81%)
Заголовок : Walking with Dinosaurs 3D (2013) (Anaglyph_Dubois) (CROP).mkv
Библиотека кодирования : x264 core 130 r2273 b3065e6
Настройки программы : cabac=1 / ref=4 / deblock=1:-3:-3 / analyse=0x3:0x113 / me=umh / subme=9 / psy=1 / psy_rd=1.00:0.15 / mixed_ref=1 / me_range=32 / chroma_me=1 / trellis=1 / 8x8dct=1 / cqm=0 / deadzone=21,11 / fast_pskip=1 / chroma_qp_offset=-3 / threads=3 / lookahead_threads=1 / sliced_threads=0 / nr=0 / decimate=1 / interlaced=0 / bluray_compat=0 / constrained_intra=0 / bframes=9 / b_pyramid=2 / b_adapt=2 / b_bias=0 / direct=3 / weightb=1 / open_gop=0 / weightp=2 / keyint=250 / keyint_min=23 / scenecut=40 / intra_refresh=0 / rc_lookahead=50 / rc=2pass / mbtree=1 / bitrate=8180 / ratetol=1.0 / qcomp=0.60 / qpmin=0 / qpmax=69 / qpstep=4 / cplxblur=20.0 / qblur=0.5 / ip_ratio=1.40 / aq=1:1.00
Язык : English
Default : Да
Forced : Нет

Аудио #1
Идентификатор : 2
Формат : AC-3
Формат/Информация : Audio Coding 3
Расширение режима : CM (complete main)
Параметр Endianness формата : Big
Идентификатор кодека : A_AC3
Продолжительность : 1 ч. 27 м.
Вид битрейта : Постоянный
Битрейт : 640 Кбит/сек
Каналы : 6 каналов
Расположение каналов : Front: L C R, Side: L R, LFE
Частота : 48,0 КГц
Битовая глубина : 16 бит
Метод сжатия : С потерями
Размер потока : 401 Мбайт (6%)
Заголовок : Дубляж - BD 3D
Язык : Russian
Default : Да
Forced : Нет

Аудио #2
Идентификатор : 3
Формат : AC-3
Формат/Информация : Audio Coding 3
Расширение режима : CM (complete main)
Параметр Endianness формата : Big
Идентификатор кодека : A_AC3
Продолжительность : 1 ч. 27 м.
Вид битрейта : Постоянный
Битрейт : 448 Кбит/сек
Каналы : 6 каналов
Расположение каналов : Front: L C R, Side: L R, LFE
Частота : 48,0 КГц
Битовая глубина : 16 бит
Метод сжатия : С потерями
Размер потока : 280 Мбайт (5%)
Заголовок : Дубляж - BD 3D
Язык : Ukrainian
Default : Нет
Forced : Нет

Аудио #3
Идентификатор : 4
Формат : AC-3
Формат/Информация : Audio Coding 3
Расширение режима : CM (complete main)
Параметр Endianness формата : Big
Идентификатор кодека : A_AC3
Продолжительность : 1 ч. 27 м.
Вид битрейта : Постоянный
Битрейт : 640 Кбит/сек
Каналы : 6 каналов
Расположение каналов : Front: L C R, Side: L R, LFE
Частота : 48,0 КГц
Битовая глубина : 16 бит
Метод сжатия : С потерями
Размер потока : 401 Мбайт (6%)
Заголовок : Original - BD 3D
Язык : English
Default : Нет
Forced : Нет

Меню
00:00:00.000 : :1
00:01:52.528 : :2
00:05:28.952 : :3
00:07:35.745 : :4
00:12:14.107 : :5
00:14:54.976 : :6
00:17:11.946 : :7
00:18:38.366 : :8
00:21:55.146 : :9
00:24:38.518 : :10
00:27:15.215 : :11
00:28:35.963 : :12
00:30:48.512 : :13
00:33:06.401 : :14
00:37:45.762 : :15
00:42:10.318 : :16
00:44:07.853 : :17
00:47:43.860 : :18
00:51:07.230 : :19
00:52:58.800 : :20
00:56:57.038 : :21
00:58:28.755 : :22
01:02:56.731 : :23
01:06:53.384 : :24
01:10:48.077 : :25
01:17:02.242 : :26
01:18:48.222 : :27
01:20:23.568 : :28

pb.wtf



Скачать Прогулки с динозаврами 3D через торрент https://pic.kartinco.top/images/6/zbos7.jpg Скачать фильм Прогулки с динозаврами 3D через торрент бесплантно в хорошем качестве Описание: «Прогулки с динозаврами» — это увлекательное путешествие с полным погружением в 3D-реальность, созданную по инновационной ... 10 10 6
Info! Серебряная раздача, засчитывается только 50% скачанного.
Торрент: Зарегистрирован [2014-06-20 17:31] · скачан: 325 раз
Статус: √ проверено
Размер: 6.05 GB
Как cкачать? Как скачать Прогулки с динозаврами 3D через торрент | UTorrent

% Раздел Тема Автор DL S | L
3D Фильмы [ 26.44 GB ] Прогулки с динозаврами 3D / Walking with Dinosaurs 3D [2013 Blu-Ray Remux ] 3D 2D! Ворон Скачать
1 | 0
Фильмы 2013 [DVDrip, WEB-DLRip, HDrip] [ 1.37 GB ] Прогулки с динозаврами 3D / Walking with Dinosaurs 3D [ 2013 Индия HDRip ]DUB () GEKADOL Скачать
2 | 0
3D Фильмы [ 8.21 GB ] Прогулки с динозаврами 3D / Walking with Dinosaurs 3D [2013 BDRip 1080 ] Андрей фил Скачать
1 | 0
Иностранные мультфильмы [ 2.18 GB ] Прогулки с динозаврами 3D / Walking with Dinosaurs 3D [2013 HDRip-AVC] DUB [] + Original / от R.G. PiratFilms Demonessa Скачать
1 | 0
Фильмы [HD 720p, 1080p] (Хороший звук DUB, MVO) [ 4.64 GB ] Прогулки с динозаврами 3D / Walking with Dinosaurs 3D [ 2013 Индия BDRip720p ]DUB ()+Оригинал GEKADOL Скачать
1 | 0

28-11-2019 20:33  

Отключить всю рекламу на сайте

20-06-2014 20:42 Прогулки с динозаврами 3D Скачать торрент  

Спасибо огромное!pb.wtf



    Дорогой пользователь! Огромная просьба, поблагодарите релизера, оцените раздачу и оставьте свои комментарий, если Вы скачали Прогулки с динозаврами 3D через торрент бесплатно! Внесите свою лепту в развитие PiratBit!
    Комментировать посты могут только пользователи прошедшие не сложную регистрацию
    Показать сообщения:    

    Прогулки с динозаврами 3D через торрент
    Скачать бесплатно Прогулки с динозаврами 3D
    Прогулки с динозаврами 3D скачать торрент
    Прогулки с динозаврами 3D смотреть онлайн
    Cкачать фильм Прогулки с динозаврами 3D бесплатно
    Прогулки с динозаврами 3D скачать торрент в хорошем качестве
    Прогулки с динозаврами 3D смотреть онлайн бесплатно в хорошем качестве


    Вы не можете начинать темы
    Вы не можете отвечать на сообщения
    Вы не можете редактировать свои сообщения
    Вы не можете удалять свои сообщения
    Вы не можете голосовать в опросах
    Вы не можете прикреплять файлы к сообщениям
    Вы можете скачивать файлы