Мега распродажа FORZA HORIZON 4 ULTIMATE+ВСЕ DLC+ОНЛАЙН всего за 499р. 349 руб. (супер цена). Внимание количество ограничено!!!

iTunes

1+1

iTunes

мы

iTunes

1

1 сезон

Чернобыль

1 сезон

Ральф против интернета

Лицензия

ПШазам

8 сезон

Игра престолов

Лицензия

30
pack

ВАЖНО

!!Акция!!

Alien_RageХит недели

RePack

Resident Evil 21

ИГРА 18+

pack

RePack

Metro:Exodus

!!Акция!!

Alien_Rage

RePack

fifa19

RePack

Assassins Creed: Odyssey

RePack

NEED FOR SPEED™ PAYBACK

3 сезон

9 сезон

Бесстыжие 9 сезон

Все сериалы

все сериалы на PB.wtf

RePack

FAR CRY 5
Ребята, катастрофически не хватает 2730р. для оплаты серверов за ИЮНЬ (всвязи с блокировками трафик упал в 3 раза), 1-2р., выручайте.
  

Море по колено / Сезон: 1 / Серии 1-64 из 64 (Андрей Ушатинский, Вячеслав Лавров) [ 2014 , Россия , комедия, мелодрама , SATRip ] pb.wtf

Море по колено через торрент pb.wtf

Размер: 31.59 GB | Добавлен: 4 года 5 мес. назад | Торрент скачан:54 раза
Скачать  

21-06-2014 02:58 Море по колено Скачать торрент  

Море по колено
Год выпуска: 2014
Страна: Россия
Жанр: комедия, мелодрама
Продолжительность: ~00:35:53 (Серия)
Перевод: Не требуется
Субтитры: Нет
Режиссер: Андрей Ушатинский, Вячеслав Лавров
Сценарий: Алексей Ефимов, Марина Кошкина, Елена Калинина, Елена Смертина, Андрей Ушатинский
Продюсер: Влад Ряшин, Дарья Лаврова, Филипп Брусникин
Оператор: Виталий Абрамов
В ролях:
Дарья Фекленко, Сергей Пиоро, Борис Шувалов, Сергей Колешня, Полина Ганшина, Анастасия Шумилкина, Кирилл Пономарев, Миша Зубаревич, Анна Фаюстова, Анастасия Тихая (Ольга)
Описание:
Любовь Петухова, отслужившая двадцать лет коком на торговом судне, списывается на берег из-за неразделенной любви к капитану и начинает новую жизнь на суше.
В маленьком приморском городке у Любы имеется дом, в котором, счастливо проживает Любин брат Василий с женой Капой и тремя детьми. Однако оказывается, что родные вовсе не жаждут заключать Любу в объятия. Они настолько привыкли к ее морскому отсутствию, что поначалу всеми силами пытаются отправить Любу обратно.
Однако мудрая Люба, присматриваясь к семейству, догадывается, что в доме не хватает твердой хозяйской руки. И Люба решает помочь семье брата наладить быт и отношения.
Люба остается жить у Петуховых, так искусно поддерживаемых и ведомых ею, что те даже не подозревают об этом.
И жизнь семьи потихоньку начинает налаживаться, а у самой Любы появляются целых два ухажера-претендента на ее руку и сердце - Дмитрий и Борис, отличные мужики, но сердце любы занято таинственным капитаном...
Качество: SATRip
Формат: AVI
Видео кодек: XviD
Аудио кодек: AC3
Видео: 1800 Кбит/сек, 720*400 (16:9), в 25,000 кадров/сек, MPEG-4 Visual (XviD)
Аудио: 192 Кбит/сек, 48,0 КГц, 16 бит, 2 канала, AC-3 Раздача ведётся путём добавления новых серийДобавлены 63-64 серии (02.02.2015)Просьба перекачать торрент файл

Внимание! Раздача ведётся путём добавления новых серий; при каждом добавлении создаётся новый торрент. Чтобы начать докачку новой серии, пользователям необходимо сделать следующее:
(1) остановить скачивание,
(2) удалить старый торрент у себя из клиента (старые серии удалять не надо),
(3) скачать новый торрент и запустить его у себя в клиенте вместо старого, при этом указать клиенту путь в старую папку куда и должно происходить скачивание новых серий.
Ваш клиент при этом должен произвести хеширование (проверку) старой папки (если не производит сам - помогите ему сделать это), и будет докачивать только те серии которых у вас ещё нет. Старые серии при этом не удаляются, а продолжают раздаваться!
Eсли вы уже удалили старые серии, то предотвратить повторную закачку старых серий можно, отжав галочку в соответсвующих местах при запуске нового торрента. По возможности, желательно не удалять старые серии как можно дольше чтобы релизёр не столько продолжал раздавать старые серии, а смог сконцентрироваться на новых.

Общее
Полное имя : H:\ТОРРЕНТЫ\Море по колено(2014)\Море по колено2.avi
Формат : AVI
Формат/Информация : Audio Video Interleave
Размер файла : 514 Мбайт
Продолжительность : 35 м.
Общий поток : 2002 Кбит/сек
Программа кодирования : VirtualDubMod 1.5.10.3 | www.virtualdub-fr.org || (build 2550/release)
Библиотека кодирования : VirtualDubMod build 2550/release

Видео
Идентификатор : 0
Формат : MPEG-4 Visual
Профиль формата : Advanced Simple@L5
Параметр BVOP формата : 2
Параметр QPel формата : Нет
Параметр GMC формата : Без точки перехода
Параметр матрицы формата : Default (H.263)
Идентификатор кодека : XVID
Идентификатор кодека/Подсказка : XviD
Продолжительность : 35 м.
Битрейт : 1800 Кбит/сек
Ширина : 720 пикселей
Высота : 400 пикселей
Соотношение сторон : 16:9
Частота кадров : 25,000 кадров/сек
Цветовое пространство : YUV
Субдискретизация насыщенности : 4:2:0
Битовая глубина : 8 бит
Тип развёртки : Прогрессивная
Метод сжатия : С потерями
Бит/(Пиксели*Кадры) : 0.250
Размер потока : 462 Мбайт (90%)
Библиотека кодирования : XviD 1.2.1 (UTC 2008-12-04)

Аудио
Идентификатор : 1
Формат : AC-3
Формат/Информация : Audio Coding 3
Расширение режима : CM (complete main)
Параметр Endianness формата : Big
Идентификатор кодека : 2000
Продолжительность : 35 м.
Вид битрейта : Постоянный
Битрейт : 192 Кбит/сек
Каналы : 2 канала
Расположение каналов : Front: L R
Частота : 48,0 КГц
Битовая глубина : 16 бит
Метод сжатия : С потерями
Размер потока : 49,3 Мбайт (10%)
Выравнивание : Разделение по промежуткам
Продолжительность промежутка : 40 мс. (1,00 видеокадр)
Время предзагрузки промежутка : 500 мс.

"Скриншоты"
скриншот   скриншот   скриншот   скриншот   скриншот  
скриншот  

pb.wtf



Скачать Море по колено через торрент http://pic.kartinco.top/images/6/oxuad.jpg Скачать фильм Море по колено через торрент бесплантно в хорошем качестве Описание:Любовь Петухова, отслужившая двадцать лет коком на торговом судне, списывается на берег из-за неразделенной любви к капитану и ... 8.5 10 11
Info! Золотая раздача, скачанное не засчитывается.
Торрент: Зарегистрирован [2015-02-02 04:30] · скачан: 54 раз
Статус: √ проверено
Размер: 31.59 GB
Как cкачать? Как скачать Море по колено через торрент | qTorrent



Последний раз редактировалось: GEKADOL (2015-02-02 04:30), всего редактировалось 33 раз(а)


>> Регистрируемся здесь <<






Отзывы и комментарии о схеме читаем и пишем здесь: ---> Отзывы и комментарии о схеме

Новые благодарочки в телеграм довольных пользователей:
скриншот   скриншот   скриншот   скриншот   скриншот

26-10-2014 08:03 Море по колено Скачать торрент  

Спасибо за описание.Уже посмотрел)))Такое "добро"лепят каждый месяц.pb.wtf



    Дорогой пользователь! Огромная просьба, поблагодарите релизера, оцените раздачу и оставьте свои комментарий, если Вы скачали Море по колено через торрент бесплатно! Внесите свою лепту в развитие PiratBit!
    Комментировать посты могут только пользователи прошедшие не сложную регистрацию
    Показать сообщения:    

    Море по колено через торрент
    Скачать бесплатно Море по колено
    Море по колено скачать торрент
    Море по колено смотреть онлайн
    Cкачать фильм Море по колено бесплатно
    Море по колено скачать торрент в хорошем качестве
    Море по колено смотреть онлайн бесплатно в хорошем качестве


    Вы не можете начинать темы
    Вы не можете отвечать на сообщения
    Вы не можете редактировать свои сообщения
    Вы не можете удалять свои сообщения
    Вы не можете голосовать в опросах
    Вы не можете прикреплять файлы к сообщениям
    Вы можете скачивать файлы