Ссылка на приватное зеркало нашего сайта всего за 1$. Внимание количество ограничено!!!

2 сезон

iTunes

1 сезон

1

2 сезон

2 сезон

iTunes

1 сезон

RePack

30

Ultimate

ВАЖНО

ИГРА 18+

pack

RePack

MK11
pack

Забери бонус

RePack

jed

!!Акция!!

Alien_Rage

RePack

fifa19

RePack

Assassins Creed: Odyssey

RePack

NEED FOR SPEED™ PAYBACK

4 сезон

9 сезон

Бесстыжие 9 сезон

Все сериалы

все сериалы на PB.wtf

RePack

FAR CRY 5
  

Доминион / Dominion / Сезон: 1 / Серии 1-8 из 8 (Скотт Чарльз Стюарт / Scott Charles Stewart) [ 2014 , США , ужасы, фантастика, фэнтези , WEB-DLRip(AVC) ] MVO (BaibaKo) pb.wtf

Доминион через торрент pb.wtf

Размер: 5.09 GB | Добавлен: 6 лет 3 мес. назад | Торрент скачан:761 раз
Скачать  

21-06-2014 03:38 Доминион Скачать торрент  

Доминион / Dominion


Год выпуска: 2014
Страна: США
Жанр: ужасы, фантастика, фэнтези, боевик, драма
Продолжительность: ~01:06:27 (Серия)
Перевод: Профессиональный (многоголосый, закадровый)(BaibaKo)
Субтитры: Нет
Режиссер: Скотт Чарльз Стюарт / Scott Charles Stewart
Сценарий: Вон Уилмотт / Vaun Wilmott
Продюсер: Тодд Хэрсан / Todd Harthan, Дэвид Викт / David Wicht, Черил Иток / Cheryl Eatock, Дэвид Ланкастер / David Lancaster, Мишель Литвак / Michel Litvak
Оператор: Адам Сушитцки / Adam Suschitzky
Композитор: Джеф Рона / Jeff Rona, Кристофер Янг / Christopher Young
В ролях:
Карл Бьюкс (Gabriel), Алан Дэйл (General Rysen), Кристофер Иган (Alex Lannen), Крис Фишер (Ethan), Шивани Гаи (Arika), Розалинд Халстэд (Becca Thorn), Энтони Хэд (David Weel), Антон Дэвид Джефта (Furiad), Лэнгли Кирквуд (Jeep), Роксанна МакКи (Claire Rysen), Алистер Молтон-Блэк (Officer), Дилан Скьюс (John)
Мировая премьера: 19 июня 2014
Описание:
Новый сериал Доминион основан на персонажах фильма Легион. Сюжет развернется спустя много лет после действий фильма. В 25 году после нашей эры армия ангелов, возглавляемая архангелом Гавриилом ведет кровопролитную войну против всего человечества. Один лишь архангел Михаил решает принять сторону людей и выступить против себе подобных. После долгих 25 лет сражений, укрепившиеся города защищают оставшихся в живых и держат последнюю линию обороны. Самый большой среди уцелевших городов — Вега (бывший Лас Вегас). Казалось бы, в этой войне люди должны быть сплочены перед лицом врага. Но в Веге ведется постоянное противостояние двух сторон за контроль над городом и готовится государственный переворот. В это же время молодой человек, непокорный солдат, отправляется в путешествие, в ходе которого он делает потрясающее открытие о том, что он, по всей видимости – спаситель человечества.
Рейтинг
kinopoisk.ru: 6.833 (34)
Качество: WEB-DLRip(AVC)
Формат: MPEG-4
Видео кодек: AVC
Аудио кодек: AAC (LC)
Видео: 1536 Кбит/сек, 720*400 (16:9), в 23,976 кадра/сек, AVC
Аудио №1: Русский 192 Кбит/сек, 48,0 КГц, 2 канала, AAC (LC)
Аудио №2: Английский 192 Кбит/сек, 48,0 КГц, 2 канала, AAC (LC) Раздача ведётся путём добавления новых серийДобавлена 8 заключительная серия (10.08.2014)Просьба перекачать торрент файл

Внимание! Раздача ведётся путём добавления новых серий; при каждом добавлении создаётся новый торрент. Чтобы начать докачку новой серии, пользователям необходимо сделать следующее:
(1) остановить скачивание,
(2) удалить старый торрент у себя из клиента (старые серии удалять не надо),
(3) скачать новый торрент и запустить его у себя в клиенте вместо старого, при этом указать клиенту путь в старую папку куда и должно происходить скачивание новых серий.
Ваш клиент при этом должен произвести хеширование (проверку) старой папки (если не производит сам - помогите ему сделать это), и будет докачивать только те серии которых у вас ещё нет. Старые серии при этом не удаляются, а продолжают раздаваться!
Eсли вы уже удалили старые серии, то предотвратить повторную закачку старых серий можно, отжав галочку в соответствующих местах при запуске нового торрента. По возможности, желательно не удалять старые серии как можно дольше чтобы релизёр не столько продолжал раздавать старые серии, а смог сконцентрироваться на новых.

Общее
Полное имя : H:\ТОРРЕНТЫ\Доминион(2014)\Dominion.s01e01.WEB-DLRip.x264.Rus-Eng.BaibaKo.tv.mp4
Формат : MPEG-4
Профиль формата : Base Media
Идентификатор кодека : isom
Размер файла : 912 Мбайт
Продолжительность : 1 ч. 6 м.
Режим общего битрейта : Переменный
Общий поток : 1919 Кбит/сек
Дата кодирования : UTC 2014-06-21 02:51:48
Дата пометки : UTC 2014-06-21 02:51:48

Видео
Идентификатор : 1
Формат : AVC
Формат/Информация : Advanced Video Codec
Профиль формата : Baseline@L3.0
Параметр CABAC формата : Нет
Параметр ReFrames формата : 3 кадра
Идентификатор кодека : avc1
Идентификатор кодека/Информация : Advanced Video Coding
Продолжительность : 1 ч. 6 м.
Битрейт : 1536 Кбит/сек
Максимальный битрейт : 6676 Кбит/сек
Ширина : 720 пикселей
Высота : 400 пикселей
Соотношение сторон : 16:9
Режим частоты кадров : Переменный
Частота кадров : 23,976 кадра/сек
Минимальная частота кадров : 23,974 кадра/сек
Максимальная частота кадров : 23,981 кадра/сек
Цветовое пространство : YUV
Субдискретизация насыщенности : 4:2:0
Битовая глубина : 8 бит
Тип развёртки : Прогрессивная
Бит/(Пиксели*Кадры) : 0.222
Размер потока : 730 Мбайт (80%)
Библиотека кодирования : x264 core 130 r2273 b3065e6
Настройки программы : cabac=0 / ref=3 / deblock=1:0:0 / analyse=0x1:0x111 / me=hex / subme=7 / psy=1 / psy_rd=1.00:0.00 / mixed_ref=1 / me_range=16 / chroma_me=1 / trellis=1 / 8x8dct=0 / cqm=0 / deadzone=21,11 / fast_pskip=1 / chroma_qp_offset=-2 / threads=12 / lookahead_threads=2 / sliced_threads=0 / nr=0 / decimate=1 / interlaced=0 / bluray_compat=0 / constrained_intra=0 / bframes=0 / weightp=0 / keyint=240 / keyint_min=24 / scenecut=40 / intra_refresh=0 / rc_lookahead=40 / rc=2pass / mbtree=1 / bitrate=1536 / ratetol=1.0 / qcomp=0.60 / qpmin=0 / qpmax=69 / qpstep=4 / cplxblur=20.0 / qblur=0.5 / ip_ratio=1.40 / aq=1:1.00
Дата кодирования : UTC 2014-06-20 22:53:20
Дата пометки : UTC 2014-06-21 02:52:14
Основные цвета : BT.709
Характеристики трансфера : BT.709
Коэффициенты матрицы : BT.709

Аудио #1
Идентификатор : 2
Формат : AAC
Формат/Информация : Advanced Audio Codec
Профиль формата : LC
Идентификатор кодека : 67
Продолжительность : 1 ч. 6 м.
Вид битрейта : Переменный
Битрейт : 192 Кбит/сек
Максимальный битрейт : 196 Кбит/сек
Каналы : 2 канала
Расположение каналов : Front: L R
Частота : 48,0 КГц
Метод сжатия : С потерями
Размер потока : 90,0 Мбайт (10%)
Язык : Russian
Дата кодирования : UTC 2014-06-21 02:52:01
Дата пометки : UTC 2014-06-21 02:52:14

Аудио #2
Идентификатор : 3
Формат : AAC
Формат/Информация : Advanced Audio Codec
Профиль формата : LC
Идентификатор кодека : 67
Продолжительность : 1 ч. 6 м.
Вид битрейта : Переменный
Битрейт : 192 Кбит/сек
Максимальный битрейт : 196 Кбит/сек
Каналы : 2 канала
Расположение каналов : Front: L R
Частота : 48,0 КГц
Метод сжатия : С потерями
Размер потока : 90,0 Мбайт (10%)
Язык : English
Дата кодирования : UTC 2014-06-21 02:52:10
Дата пометки : UTC 2014-06-21 02:52:14

скриншот   скриншот   скриншот   скриншот   скриншот   скриншот   скриншот   скриншот   скриншот   скриншот  
pb.wtf



Скачать Доминион через торрент http://pic.kartinco.top/images/6/p1w5w.jpg Скачать фильм Доминион через торрент бесплантно в хорошем качестве Описание:Новый сериал Доминион основан на персонажах фильма Легион. Сюжет развернется спустя много лет после действий фильма. В 25 году ... 9.9 10 49
Info! Золотая раздача, скачанное не засчитывается.
Торрент: Зарегистрирован [2014-08-10 01:07] · скачан: 761 раз
Статус: √ проверено
Размер: 5.09 GB
Как cкачать? Как скачать Доминион через торрент | qTorrent

% Раздел Тема Автор DL S | L
Зарубежные сериалы [ 3.56 GB ] Доминион / Dominion / 1 сезон / 1-8 серии из 8 [2014 WEB-DLRip] MVO [LostFilm] bober100 Скачать
1 | 0
Зарубежные сериалы [ 11.94 GB ] Доминион / Dominion / Сезон: 1 / Серии 1-3 6-8 из 8 [ 2014 WEB-DL1080 ] MVO GEKADOL Скачать
1 | 0


Последний раз редактировалось: GEKADOL (2014-08-10 01:07), всего редактировалось 10 раз(а)

28-11-2019 20:33  

Отключить всю рекламу на сайте

21-06-2014 03:55 Доминион Скачать торрент  

весь сериал такая мрачность будет?pb.wtf



29-08-2015 11:02 Доминион Скачать торрент  

Скорости дайте pb.wtf



    Дорогой пользователь! Огромная просьба, поблагодарите релизера, оцените раздачу и оставьте свои комментарий, если Вы скачали Доминион через торрент бесплатно! Внесите свою лепту в развитие PiratBit!
    Комментировать посты могут только пользователи прошедшие не сложную регистрацию
    Показать сообщения:    

    Доминион через торрент
    Скачать бесплатно Доминион
    Доминион скачать торрент
    Доминион смотреть онлайн
    Cкачать фильм Доминион бесплатно
    Доминион скачать торрент в хорошем качестве
    Доминион смотреть онлайн бесплатно в хорошем качестве


    Вы не можете начинать темы
    Вы не можете отвечать на сообщения
    Вы не можете редактировать свои сообщения
    Вы не можете удалять свои сообщения
    Вы не можете голосовать в опросах
    Вы не можете прикреплять файлы к сообщениям
    Вы можете скачивать файлы