Достать ножи: Стеклянная луковица

MVO

Добыча

Дубляж

Уэнсдэй

1 сезон

Тор

Дубляж

13 клиническая

1 сезон

Жестокая ночь

MVO

Одни из нас

1 сезон

Deluxe

pack

Рекомендуем

30

Пиратка

ВАЖНО

ВАЖНО

Ghostwire

Пиратка

jed

RePack

nioh2

RePack

RDR2

RePack

NEED FOR SPEED™ PAYBACK

RePack

скачать торрент

Кинопоиск HD

Острые козырьки 6 сезон

6 сезон

FAR CRY 6

RePack

скачать торрент

Лицензия

скачать торрент

MVO

1

1 сезон

скачать торрент

1 сезон

скачать торрент

Лицензия

  

Отпуск в сентябре (Виталий Мельников) [1979 г., драма, DVDRip]

Отпуск в сентябре через торрент pb.wtf

Размер: 2.09 GB | Добавлен: 8 лет 7 мес. назад | Торрент скачан:24 раза
Смотреть онлайн | Скачать | Поддержите нас   

21-06-2014 08:24 Отпуск в сентябре Скачать торрент  

Отпуск в сентябре
Год выпуска: 1979
Страна: СССР
Жанр: драма
Продолжительность: 02:16:08

Режиссер: Виталий Мельников
Сценарий: Виталий Мельников, Александр Вампилов



В ролях: Олег Даль, Ирина Купченко, Ирина Резникова, Наталья Гундарева, Наталья Миколышина, Юрий Богатырев, Геннадий Богачёв, Николай Бурляев, Евгений Леонов

Описание: Виктор Зилов на работе получает долгожданную квартиру и устраивает новоселье для друзей, с которыми дружит еще со школьных времен. Галина — жена Виктора — возлагает на квартиру большие надежды. Ей кажется, что теперь начнется счастливая жизнь.

В последнее время Виктор часто не ночевал дома, весь изолгался, пил, болтался с женщинами. Галина устала от его бесконечных пустых обещаний, но она любит Виктора и ждет от него ребенка. Зилова эта новость не обрадовала. Привыкнув к бесцельной жизни, он понимает, что ребенок — это обуза. Дома отношения не складывались, да и на работе тоже. Чтобы излишне не утруждаться, Зилов — в общем-то способный человек — подсовывает своему начальнику липовый проект…

Качество: DVDRip
Формат: AVI
Видео кодек: XviD
Аудио кодек: AC3
Видео: 720x544, (4:3), 25,000 кадров/сек, 1738 Кбит/сек, 0.178 бит/пикс
Аудио: 48,0 КГц, АС3, 6 каналов, 448 Кбит/сек


скриншот   скриншот   скриншот   скриншот   скриншот  
Общее
Полное имя : D:\загрузки\Отпуск в сентябре.1979.DVDRip.avi
Формат : AVI
Формат/Информация : Audio Video Interleave
Профиль формата : OpenDML
Размер файла : 2,09 Гбайт
Продолжительность : 2 ч. 16 м.
Общий поток : 2195 Кбит/сек
Программа кодирования : VirtualDubMod 1.5.4.1 (build 2178/release)
Библиотека кодирования : VirtualDubMod build 2178/release

Видео
Идентификатор : 0
Формат : MPEG-4 Visual
Профиль формата : Advanced [email protected]
Параметр BVOP формата : 1
Параметр QPel формата : Нет
Параметр GMC формата : Без точки перехода
Параметр матрицы формата : Выборочная
Идентификатор кодека : XVID
Идентификатор кодека/Подсказка : XviD
Продолжительность : 2 ч. 16 м.
Битрейт : 1738 Кбит/сек
Ширина : 720 пикселей
Высота : 544 пикселя
Соотношение сторон : 4:3
Частота кадров : 25,000 кадров/сек
Цветовое пространство : YUV
Субдискретизация насыщенности : 4:2:0
Битовая глубина : 8 бит
Тип развёртки : Прогрессивная
Метод сжатия : С потерями
Бит/(Пиксели*Кадры) : 0.178
Размер потока : 1,65 Гбайт (79%)
Библиотека кодирования : XviD 1.2.1 (UTC 2008-12-04)

Аудио
Идентификатор : 1
Формат : AC-3
Формат/Информация : Audio Coding 3
Расширение режима : CM (complete main)
Параметр Endianness формата : Big
Идентификатор кодека : 2000
Продолжительность : 2 ч. 16 м.
Вид битрейта : Постоянный
Битрейт : 448 Кбит/сек
Каналы : 6 каналов
Расположение каналов : Front: L C R, Side: L R, LFE
Частота : 48,0 КГц
Битовая глубина : 16 бит
Метод сжатия : С потерями
Размер потока : 436 Мбайт (20%)
Выравнивание : Разделение по промежуткам
Продолжительность промежутка : 96 мс. (2,40 видеокадра)
Время предзагрузки промежутка : 96 мс.




Скачать Отпуск в сентябре через торрент https://pic1.kartinco.top/images/61/ocwpl.jpg Скачать, смотреть онлайн Отпуск в сентябре бесплантно в хорошем качестве Описание: Виктор Зилов на работе получает долгожданную квартиру и устраивает новоселье для друзей, с которыми дружит еще со школьных ... 9.8 10 6
Info! Золотая раздача, скачанное не засчитывается.
Торрент: Зарегистрирован [2014-06-21 08:24] · скачан: 24 раз
Статус: √ проверено
Размер: 2.09 GB
Как cкачать? Как скачать Отпуск в сентябре через торрент | UTorrent

28-11-2019 20:33  


Отключить вcю реклaмy на сайте, в т.ч. и в плеере онлайн просмотра!

    Дорогой пользователь! Огромная просьба, поблагодарите релизера, оцените раздачу и оставьте свои комментарий, если Вы скачали Отпуск в сентябре через торрент бесплатно!!
    Комментировать посты могут только пользователи прошедшие не сложную регистрацию
    Показать сообщения:    


    Отпуск в сентябре через торрент
    Скачать бесплатно Отпуск в сентябре
    Отпуск в сентябре скачать торрент
    Отпуск в сентябре смотреть онлайн
    Cкачать фильм Отпуск в сентябре бесплатно
    Отпуск в сентябре скачать торрент в хорошем качестве
    Отпуск в сентябре смотреть онлайн бесплатно в хорошем качестве
    Вы не можете начинать темы
    Вы не можете отвечать на сообщения
    Вы не можете редактировать свои сообщения
    Вы не можете удалять свои сообщения
    Вы не можете голосовать в опросах
    Вы не можете прикреплять файлы к сообщениям
    Вы можете скачивать файлы
    Отпуск в сентябре [1979 г., драма, DVDRip] смотреть онлайн, скачать торрент picoco.icu