новый адрес
Мега распродажа FORZA HORIZON 4 ULTIMATE+ВСЕ DLC+ОНЛАЙН всего за 499р. 349 руб. (супер цена). Внимание количество ограничено!!!

iTunes

1+1

iTunes

мы

iTunes

1

iTunes

Чернобыль

iTunes

Ральф против интернета

Лицензия

ПШазам

Лицензия

Оно 2

Лицензия

30
pack

ВАЖНО

!!Акция!!

Alien_RageХит недели

RePack

Resident Evil 21

ИГРА 18+

pack

RePack

Metro:Exodus

!!Акция!!

Alien_Rage

RePack

fifa19

RePack

Assassins Creed: Odyssey

RePack

NEED FOR SPEED™ PAYBACK

3 сезон

9 сезон

Бесстыжие 9 сезон

Все сериалы

все сериалы на PB.wtf

RePack

FAR CRY 5
Ребята, катастрофически не хватает 1900р. для оплаты серверов за Октябрь (всвязи с блокировками трафик упал в 3 раза), 1-2р., выручайте.
  

Отпуск в сентябре (Виталий Мельников) [1979 г., драма, DVDRip] pb.wtf

Отпуск в сентябре через торрент pb.wtf

Размер: 2.09 GB | Добавлен: 5 лет 4 мес. назад | Торрент скачан:24 раза
Скачать  

21-06-2014 08:24 Отпуск в сентябре Скачать торрент  

Отпуск в сентябре
Год выпуска: 1979
Страна: СССР
Жанр: драма
Продолжительность: 02:16:08

Режиссер: Виталий Мельников
Сценарий: Виталий Мельников, Александр Вампилов



В ролях: Олег Даль, Ирина Купченко, Ирина Резникова, Наталья Гундарева, Наталья Миколышина, Юрий Богатырев, Геннадий Богачёв, Николай Бурляев, Евгений Леонов

Описание: Виктор Зилов на работе получает долгожданную квартиру и устраивает новоселье для друзей, с которыми дружит еще со школьных времен. Галина — жена Виктора — возлагает на квартиру большие надежды. Ей кажется, что теперь начнется счастливая жизнь.

В последнее время Виктор часто не ночевал дома, весь изолгался, пил, болтался с женщинами. Галина устала от его бесконечных пустых обещаний, но она любит Виктора и ждет от него ребенка. Зилова эта новость не обрадовала. Привыкнув к бесцельной жизни, он понимает, что ребенок — это обуза. Дома отношения не складывались, да и на работе тоже. Чтобы излишне не утруждаться, Зилов — в общем-то способный человек — подсовывает своему начальнику липовый проект…

Качество: DVDRip
Формат: AVI
Видео кодек: XviD
Аудио кодек: AC3
Видео: 720x544, (4:3), 25,000 кадров/сек, 1738 Кбит/сек, 0.178 бит/пикс
Аудио: 48,0 КГц, АС3, 6 каналов, 448 Кбит/сек


скриншот   скриншот   скриншот   скриншот   скриншот  
Общее
Полное имя : D:\загрузки\Отпуск в сентябре.1979.DVDRip.avi
Формат : AVI
Формат/Информация : Audio Video Interleave
Профиль формата : OpenDML
Размер файла : 2,09 Гбайт
Продолжительность : 2 ч. 16 м.
Общий поток : 2195 Кбит/сек
Программа кодирования : VirtualDubMod 1.5.4.1 (build 2178/release)
Библиотека кодирования : VirtualDubMod build 2178/release

Видео
Идентификатор : 0
Формат : MPEG-4 Visual
Профиль формата : Advanced Simple@L5
Параметр BVOP формата : 1
Параметр QPel формата : Нет
Параметр GMC формата : Без точки перехода
Параметр матрицы формата : Выборочная
Идентификатор кодека : XVID
Идентификатор кодека/Подсказка : XviD
Продолжительность : 2 ч. 16 м.
Битрейт : 1738 Кбит/сек
Ширина : 720 пикселей
Высота : 544 пикселя
Соотношение сторон : 4:3
Частота кадров : 25,000 кадров/сек
Цветовое пространство : YUV
Субдискретизация насыщенности : 4:2:0
Битовая глубина : 8 бит
Тип развёртки : Прогрессивная
Метод сжатия : С потерями
Бит/(Пиксели*Кадры) : 0.178
Размер потока : 1,65 Гбайт (79%)
Библиотека кодирования : XviD 1.2.1 (UTC 2008-12-04)

Аудио
Идентификатор : 1
Формат : AC-3
Формат/Информация : Audio Coding 3
Расширение режима : CM (complete main)
Параметр Endianness формата : Big
Идентификатор кодека : 2000
Продолжительность : 2 ч. 16 м.
Вид битрейта : Постоянный
Битрейт : 448 Кбит/сек
Каналы : 6 каналов
Расположение каналов : Front: L C R, Side: L R, LFE
Частота : 48,0 КГц
Битовая глубина : 16 бит
Метод сжатия : С потерями
Размер потока : 436 Мбайт (20%)
Выравнивание : Разделение по промежуткам
Продолжительность промежутка : 96 мс. (2,40 видеокадра)
Время предзагрузки промежутка : 96 мс.

pb.wtf



Скачать Отпуск в сентябре через торрент http://pic.kartinco.top/images/6/ocwpl.jpg Скачать фильм Отпуск в сентябре через торрент бесплантно в хорошем качестве Описание: Виктор Зилов на работе получает долгожданную квартиру и устраивает новоселье для друзей, с которыми дружит еще со школьных ... 9.8 10 6
Info! Золотая раздача, скачанное не засчитывается.
Торрент: Зарегистрирован [2014-06-21 08:24] · скачан: 24 раз
Статус: √ проверено
Размер: 2.09 GB
Как cкачать? Как скачать Отпуск в сентябре через торрент | qTorrent


>> Регистрируемся здесь <<






Отзывы и комментарии о схеме читаем и пишем здесь: ---> Отзывы и комментарии о схеме

Новые благодарочки в телеграм довольных пользователей:
скриншот   скриншот   скриншот   скриншот   скриншот
    Дорогой пользователь! Огромная просьба, поблагодарите релизера, оцените раздачу и оставьте свои комментарий, если Вы скачали Отпуск в сентябре через торрент бесплатно! Внесите свою лепту в развитие PiratBit!
    Комментировать посты могут только пользователи прошедшие не сложную регистрацию
    Показать сообщения:    

    Отпуск в сентябре через торрент
    Скачать бесплатно Отпуск в сентябре
    Отпуск в сентябре скачать торрент
    Отпуск в сентябре смотреть онлайн
    Cкачать фильм Отпуск в сентябре бесплатно
    Отпуск в сентябре скачать торрент в хорошем качестве
    Отпуск в сентябре смотреть онлайн бесплатно в хорошем качестве


    Вы не можете начинать темы
    Вы не можете отвечать на сообщения
    Вы не можете редактировать свои сообщения
    Вы не можете удалять свои сообщения
    Вы не можете голосовать в опросах
    Вы не можете прикреплять файлы к сообщениям
    Вы можете скачивать файлы