новый адрес пиратбит piratbit
Мега распродажа FORZA HORIZON 4 ULTIMATE+ВСЕ DLC+ОНЛАЙН всего за 499р. 349 руб. (супер цена). Внимание количество ограничено!!!

iTunes

1+1

iTunes

мы

iTunes

1

iTunes

Чернобыль

iTunes

Ральф против интернета

Лицензия

ПШазам

Лицензия

Игра престолов

Лицензия

30
pack

ВАЖНО

!!Акция!!

Alien_RageХит недели

RePack

Resident Evil 21

ИГРА 18+

pack

RePack

Metro:Exodus

!!Акция!!

Alien_Rage

RePack

fifa19

RePack

Assassins Creed: Odyssey

RePack

NEED FOR SPEED™ PAYBACK

3 сезон

9 сезон

Бесстыжие 9 сезон

Все сериалы

все сериалы на PB.wtf

RePack

FAR CRY 5
Ребята, катастрофически не хватает 1900р. для оплаты серверов за Октябрь (всвязи с блокировками трафик упал в 3 раза), 1-2р., выручайте.
  

Веселая хроника опасного путешествия (Евгений Гинзбург) [1986 г., Мюзикл, приключения, DVDRip] pb.wtf

Веселая хроника опасного путешествия через торрент pb.wtf

Размер: 1.08 GB | Добавлен: 5 лет 4 мес. назад | Торрент скачан:51 раз
Скачать  

21-06-2014 11:40 Веселая хроника опасного путешествия Скачать торрент  

Информация о фильме:
Название: Веселая хроника опасного путешествия

Год выпуска: 1986
Страна: СССР
Жанр: Мюзикл, приключения

Режиссёр: Евгений Гинзбург
В ролях: Зураб Кипшидзе, Лика Кавжарадзе, Сергей Шакуров, Александр Абдулов, Теймураз Циклаури, Роман Рцхиладзе, Нугзар Квашали, Джемал Багашвили, Игорь Рух, Леонид Ярмольник

Описание:
Современная версия сюжета из древнегреческих мифов о путешествии Аргонавтов из Эллады в Колхиду за золотым руном… В фильме звучат песни — «Арго», «Дуэт Язона и Медеи», «Ария Медеи», «Ария Аэта».



Релиз от: R.G.RealMT
Рип от: Azazel

Файл:
Продолжительность: 01:21:26
Перевод: Не требуется
Субтитры: Нет

Качество: DVDRip
Формат: AVI
Видео кодек: XVID
Аудио кодек: MP3
Видео: ~1750 kbps, 720x540, 25 fps
Аудио: 128 kbps, 2 ch, 44,1 khz

Скриншоты:
General
Complete name : D:\Фильмы\720\Film.R.G.RealMT\VESELAYA_HRONIKA.avi
Format : AVI
Format/Info : Audio Video Interleave
File size : 1.08 GiB
Duration : 1h 21mn
Overall bit rate : 1 890 Kbps

Video
ID : 0
Format : MPEG-4 Visual
Format profile : Advanced Simple@L4
Format settings, BVOP : No
Format settings, QPel : No
Format settings, GMC : No warppoints
Format settings, Matrix : Default (H.263)
Codec ID : XVID
Codec ID/Hint : XviD
Duration : 1h 21mn
Bit rate : 1 750 Kbps
Width : 720 pixels
Height : 540 pixels
Display aspect ratio : 4:3
Frame rate : 25.000 fps
Color space : YUV
Chroma subsampling : 4:2:0
Bit depth : 8 bits
Scan type : Progressive
Compression mode : Lossy
Bits/(Pixel*Frame) : 0.180
Stream size : 1 019 MiB (93%)

Audio
ID : 1
Format : MPEG Audio
Format version : Version 1
Format profile : Layer 3
Codec ID : 55
Codec ID/Hint : MP3
Duration : 1h 21mn
Bit rate mode : Constant
Bit rate : 128 Kbps
Channel count : 2 channels
Sampling rate : 44.1 KHz
Compression mode : Lossy
Stream size : 74.6 MiB (7%)
Alignment : Split accross interleaves
Interleave, duration : 26 ms (0.65 video frame)
pb.wtf



Скачать Веселая хроника опасного путешествия через торрент http://i62.fastpic.ru/big/2014/0621/97/3e511fa57e1aca6e99f7cb5e42101997.png Скачать фильм Веселая хроника опасного путешествия через торрент бесплантно в хорошем качестве Описание: Современная сюжета из древнегреческих мифов о путешествии Аргонавтов из Эллады в Колхиду за золотым руном… В фильме звучат ... 9.7 10 3
Info! Золотая раздача, скачанное не засчитывается.
Торрент: Зарегистрирован [2014-06-21 11:40] · скачан: 51 раз
Статус: √ проверено
Размер: 1.08 GB
Как cкачать? Как скачать Веселая хроника опасного путешествия через торрент | qTorrent


>> Регистрируемся здесь <<






Отзывы и комментарии о схеме читаем и пишем здесь: ---> Отзывы и комментарии о схеме

Новые благодарочки в телеграм довольных пользователей:
скриншот   скриншот   скриншот   скриншот   скриншот
    Дорогой пользователь! Огромная просьба, поблагодарите релизера, оцените раздачу и оставьте свои комментарий, если Вы скачали Веселая хроника опасного путешествия через торрент бесплатно! Внесите свою лепту в развитие PiratBit!
    Комментировать посты могут только пользователи прошедшие не сложную регистрацию
    Показать сообщения:    

    Веселая хроника опасного путешествия через торрент
    Скачать бесплатно Веселая хроника опасного путешествия
    Веселая хроника опасного путешествия скачать торрент
    Веселая хроника опасного путешествия смотреть онлайн
    Cкачать фильм Веселая хроника опасного путешествия бесплатно
    Веселая хроника опасного путешествия скачать торрент в хорошем качестве
    Веселая хроника опасного путешествия смотреть онлайн бесплатно в хорошем качестве


    Вы не можете начинать темы
    Вы не можете отвечать на сообщения
    Вы не можете редактировать свои сообщения
    Вы не можете удалять свои сообщения
    Вы не можете голосовать в опросах
    Вы не можете прикреплять файлы к сообщениям
    Вы можете скачивать файлы