Ссылка на приватное зеркало нашего сайта всего за 1$. Внимание количество ограничено!!!

2 сезон

iTunes

1 сезон

1

iTunes

iTunes

iTunes

1 сезон

RePack

30

ИГРА 18+

pack

ВАЖНО

!!Акция!!

Alien_RageХит недели

RePack

MK11
pack

Забери бонус

RePack

jed

!!Акция!!

Alien_Rage

RePack

fifa19

RePack

Assassins Creed: Odyssey

RePack

NEED FOR SPEED™ PAYBACK

4 сезон

9 сезон

Бесстыжие 9 сезон

Все сериалы

все сериалы на PB.wtf

RePack

FAR CRY 5
  

Медвежатник / The Score (Фрэнк Оз) [2001 г., боевик, триллер, криминал, BDRip 1080p] 2xMVO + 2xAVO (Живов / Горчаков) + Original Eng pb.wtf

Медвежатник через торрент pb.wtf

Раздают: 1 [ 0 KB/s ]
Размер: 14.31 GB | Добавлен: 6 лет 4 мес. назад | Торрент скачан:397 раз
Скачать  

21-06-2014 13:39 Медвежатник Скачать торрент  

Медвежатник / The Score
Год выпуска: 2001
Страна: США, Германия
Жанр: боевик, триллер, криминал
Продолжительность: 02:04:01
Перевод:
1. Профессиональный многоголосый, закадровый [Позитив-Мультимедиа]
2. Профессиональный многоголосый, закадровый [переиздание R1 Позитив-Мультимедиа]
3. Авторский одноголосый, закадровый [Ю.Живов]
4. Авторский одноголосый, закадровый [В.Горчаков]
Субтитры: Русские, Английские

Режиссер: Фрэнк Оз
Продюссер: Гари Фостер, Ли Рич, Роланд Пеллегрино
Сценарий: Карио Салем, Лем Доббс, Скотт Маршалл Смит

Бюджет: $68 000 000
Премьера в мире: 9 июля 2001










В ролях: Роберт Де Ниро, Эдвард Нортон, Марлон Брандо, Анджела Бассетт, Гэри Фармер, Пол Соулз, Джэми Харольд, Серж Уд, Жан-Рене Уэлле, Мартин Дрэнвиль




Описание: Максу удается уговорить Ника Уэллса поступиться своими двумя самыми важными правилами: всегда работать в одиночку и никогда не грабить в своем городе. Макс нашел ему партнера. События начинают стремительно развиваться. Каждый из медвежатников старается обыграть другого. Планируемое ограбление держит всех в напряжении от начала и до конца. Развязка наступает неожиданно...





за рип спасибо CtrlHD, DaRkY

Дорога №2 с переиздания R1, сигнатура DW-01155 SCORE L1, название фильма переведено как "Счёт". Дорога №1, 3-4 сделаны наложением чистого голоса (wav) на центральный канал английского DTS-HD.





Качество: BDRip 1080p
Формат: MKV
Видео кодек: H.264
Аудио кодек: DTS + AC3
Видео: 1920x816 at 23.976 fps, 2PASS HIGH@L4.1 (DXVA), x264, ~10.772 kbps avg (CtrlHD)
Аудио#1: Russian: 48 kHz, DTS, 3/2 (L,C,R,l,r) + LFE ch, ~1536.00 kbps avg |Многоголосый закадровый, Позитив-Мультимедиа|
Аудио#2: Russian: 48 kHz, AC3, 3/2 (L,C,R,l,r) + LFE ch, ~448.00 kbps avg |Многоголосый закадровый, переиздание R1 Позитив-Мультимедиа|
Аудио#3: Russian: 48 kHz, DTS, 3/2 (L,C,R,l,r) + LFE ch, ~1536.00 kbps avg |Одноголосый закадровый, Ю.Живов|
Аудио#4: Russian: 48 kHz, DTS, 3/2 (L,C,R,l,r) + LFE ch, ~1536.00 kbps avg |Одноголосый закадровый, В.Горчаков|
Аудио#5: English: 48 kHz, DTS, 3/2 (L,C,R,l,r) + LFE ch, ~768.00 kbps avg
Релиз от:
скриншот   скриншот   скриншот   скриншот   скриншот  

General
Unique ID : 192873459104830515258161096232254521316 (0x911A13B8AE4309D4A05AE191FED73FE4)
Complete name : H:Медвежатник\The.Score.2001.1080p.DTS.BluRay.4xRus.Eng.HDCLUB.mkv
Format : Matroska
Format version : Version 2
File size : 14.3 GiB
Duration : 2h 4mn
Overall bit rate : 16.5 Mbps
Movie name : The Score (2001) - Release for HDCLUB
Encoded date : UTC 2009-09-01 23:44:48
Writing application : mkvmerge v2.9.7 ('Tenderness') built on Jul 1 2009 18:43:35
Writing library : libebml v0.7.7 + libmatroska v0.8.1

Video
ID : 1
Format : AVC
Format/Info : Advanced Video Codec
Format profile : High@L4.1
Format settings, CABAC : Yes
Format settings, ReFrames : 5 frames
Codec ID : V_MPEG4/ISO/AVC
Duration : 2h 4mn
Bit rate : 10.8 Mbps
Width : 1 920 pixels
Height : 816 pixels
Display aspect ratio : 2.35:1
Frame rate mode : Constant
Frame rate : 23.976 fps
Color space : YUV
Chroma subsampling : 4:2:0
Bit depth : 8 bits
Scan type : Progressive
Bits/(Pixel*Frame) : 0.287
Stream size : 9.05 GiB (63%)
Title : Release for HDCLUB
Writing library : x264 core 72 r1222M d0ee6f8
Encoding settings : cabac=1 / ref=5 / deblock=1:-3:-3 / analyse=0x3:0x113 / me=umh / subme=9 / psy=1 / psy_rd=0.9:0.0 / mixed_ref=1 / me_range=24 / chroma_me=1 / trellis=1 / 8x8dct=1 / cqm=0 / deadzone=21,11 / chroma_qp_offset=-2 / threads=8 / nr=0 / decimate=1 / mbaff=0 / bframes=5 / b_pyramid=0 / b_adapt=2 / b_bias=0 / direct=3 / wpredb=1 / keyint=250 / keyint_min=25 / scenecut=40 / rc_lookahead=40 / rc=2pass / mbtree=1 / bitrate=10772 / ratetol=1.0 / qcomp=0.60 / qpmin=10 / qpmax=51 / qpstep=4 / cplxblur=20.0 / qblur=0.5 / ip_ratio=1.40 / aq=1:0.80
Language : English
Default : Yes
Forced : No

Audio #1
ID : 2
Format : DTS
Format/Info : Digital Theater Systems
Mode : 16
Format settings, Endianness : Big
Codec ID : A_DTS
Duration : 2h 4mn
Bit rate mode : Constant
Bit rate : 1 510 Kbps
Channel(s) : 6 channels
Channel positions : Front: L C R, Side: L R, LFE
Sampling rate : 48.0 KHz
Bit depth : 24 bits
Compression mode : Lossy
Stream size : 1.31 GiB (9%)
Title : DTS 5.1 1536 kbps Многоголосый закадровый - Позитив-Мультимедиа
Language : Russian
Default : Yes
Forced : No

Audio #2
ID : 3
Format : AC-3
Format/Info : Audio Coding 3
Mode extension : CM (complete main)
Format settings, Endianness : Big
Codec ID : A_AC3
Duration : 2h 4mn
Bit rate mode : Constant
Bit rate : 448 Kbps
Channel(s) : 6 channels
Channel positions : Front: L C R, Side: L R, LFE
Sampling rate : 48.0 KHz
Bit depth : 16 bits
Compression mode : Lossy
Stream size : 398 MiB (3%)
Title : AC3 5.1 448 kbps Многоголосый закадровый - переиздaние R1
Language : Russian
Default : No
Forced : No

Audio #3
ID : 4
Format : DTS
Format/Info : Digital Theater Systems
Mode : 16
Format settings, Endianness : Big
Codec ID : A_DTS
Duration : 2h 4mn
Bit rate mode : Constant
Bit rate : 1 510 Kbps
Channel(s) : 6 channels
Channel positions : Front: L C R, Side: L R, LFE
Sampling rate : 48.0 KHz
Bit depth : 24 bits
Compression mode : Lossy
Stream size : 1.31 GiB (9%)
Title : DTS 5.1 1536 kbps Одноголосый закадровый - Ю.Живов
Language : Russian
Default : No
Forced : No

Audio #4
ID : 5
Format : DTS
Format/Info : Digital Theater Systems
Mode : 16
Format settings, Endianness : Big
Codec ID : A_DTS
Duration : 2h 4mn
Bit rate mode : Constant
Bit rate : 1 510 Kbps
Channel(s) : 6 channels
Channel positions : Front: L C R, Side: L R, LFE
Sampling rate : 48.0 KHz
Bit depth : 24 bits
Compression mode : Lossy
Stream size : 1.31 GiB (9%)
Title : DTS 5.1 1536 kbps Одноголосый закадровый - В.Горчаков
Language : Russian
Default : No
Forced : No

Audio #5
ID : 6
Format : DTS
Format/Info : Digital Theater Systems
Mode : 16
Format settings, Endianness : Big
Codec ID : A_DTS
Duration : 2h 4mn
Bit rate mode : Constant
Bit rate : 768 Kbps
Channel(s) : 6 channels
Channel positions : Front: L C R, Side: L R, LFE
Sampling rate : 48.0 KHz
Bit depth : 16 bits
Compression mode : Lossy
Stream size : 682 MiB (5%)
Title : DTS 768kbps - Original Track
Language : English
Default : No
Forced : No

Text #1
ID : 7
Format : UTF-8
Codec ID : S_TEXT/UTF8
Codec ID/Info : UTF-8 Plain Text
Language : Russian
Default : Yes
Forced : No

Text #2
ID : 8
Format : UTF-8
Codec ID : S_TEXT/UTF8
Codec ID/Info : UTF-8 Plain Text
Language : English
Default : No
Forced : No

pb.wtf



Скачать Медвежатник через торрент http://pic.kartinco.top/images/6/8w6f3.jpg Скачать фильм Медвежатник через торрент бесплантно в хорошем качестве Описание: Максу удается уговорить Ника Уэллса поступиться своими двумя самыми важными правилами: всегда работать в одиночку и никогда не ... 9.6 10 23
Info! Золотая раздача, скачанное не засчитывается.
Торрент: Зарегистрирован [2014-06-21 13:39] · скачан: 397 раз
Статус: √ проверено
Размер: 14.31 GB
Как cкачать? Как скачать Медвежатник через торрент | qTorrent

28-11-2019 20:33  

Отключить всю рекламу на сайте

21-06-2014 15:35 Медвежатник Скачать торрент  

классный фильм-спасибо !!pb.wtf



21-06-2014 15:53 Медвежатник Скачать торрент  

urs писал(а):

классный фильм-спасибо !!

Приятного просмотра!
P.S. Все благодарности - авторам рипа. :declare:pb.wtf



22-06-2014 09:00 Медвежатник Скачать торрент  

надо брать! респект раздающим!pb.wtf



30-12-2017 18:44 Медвежатник Скачать торрент  

-Lexx-, Спасибо!pb.wtf



    Дорогой пользователь! Огромная просьба, поблагодарите релизера, оцените раздачу и оставьте свои комментарий, если Вы скачали Медвежатник через торрент бесплатно! Внесите свою лепту в развитие PiratBit!
    Комментировать посты могут только пользователи прошедшие не сложную регистрацию
    Показать сообщения:    

    Медвежатник через торрент
    Скачать бесплатно Медвежатник
    Медвежатник скачать торрент
    Медвежатник смотреть онлайн
    Cкачать фильм Медвежатник бесплатно
    Медвежатник скачать торрент в хорошем качестве
    Медвежатник смотреть онлайн бесплатно в хорошем качестве


    Вы не можете начинать темы
    Вы не можете отвечать на сообщения
    Вы не можете редактировать свои сообщения
    Вы не можете удалять свои сообщения
    Вы не можете голосовать в опросах
    Вы не можете прикреплять файлы к сообщениям
    Вы можете скачивать файлы