2 сезон

iTunes

1 сезон

1

iTunes

iTunes

iTunes

1 сезон

RePack

30

ИГРА 18+

pack

ВАЖНО

!!Акция!!

Alien_RageХит недели

RePack

MK11
pack

Забери бонус

RePack

jed

!!Акция!!

Alien_Rage

RePack

fifa19

RePack

Assassins Creed: Odyssey

RePack

NEED FOR SPEED™ PAYBACK

4 сезон

9 сезон

Бесстыжие 9 сезон

Все сериалы

все сериалы на PB.wtf

RePack

FAR CRY 5
  

Крайние меры / Extraordinary Measures (Том Вон) [2010 г., драма, HDRip, Профессиональный многоголосый, Лицензия] pb.wtf

Крайние меры через торрент pb.wtf

Размер: 2.2 GB | Добавлен: 6 лет 4 мес. назад | Торрент скачан:73 раза
Скачать  

21-06-2014 17:04 Крайние меры Скачать торрент  

Крайние меры / Extraordinary Measures
Год выпуска: 2010
Страна: США / CBS Films, Double Feature Films
Жанр: драма
Продолжительность: 01:45:05
Перевод: Профессиональный многоголосый (Лицензия)

Режиссер: Том Вон

В ролях: Брендан Фрейзер, Харрисон Форд, Кери Рассел, Мередит Дрегер, Диего Веласкес, Сэм Холл, Джаред Харрис, Патрик Бошо, Алан Рак, Дэвид Кленнон

Описание: Реальная история Джона Кроули, успешного американца, чей карьерный взлёт и безоблачное будущее в один момент были разрушены страшным известием о редкой генетической смертельной болезни двух его младших детей. Но Джон не сдаётся, с присущим талантом и решимостью он создаёт биотехнологическую компанию для разработок в недостаточно изученной области науки. Возглавить исследования берётся ученый доктор Роберт Стонхилл.

Когда инновационные исследования принесут свои плоды, станет ясно, что не только время может помешать исцелению детей. Корпоративная система медицинских услуг, здравоохранительная и законодательная системы — буквально всё противостоит разработке и внедрению экспериментального лечения. А беспрецедентное упорство и фанатизм Джона не только поставят под вопрос сотрудничество с доктором Стонхиллом, но и начнут угрожать отношениям с женой и распадом семьи.

Качество: HDRip
Формат: AVI
Видео кодек: XviD
Аудио кодек: AC3
Видео: 720x400 (1.80:1), 23.976 fps, XviD build 50 ~2537 kbps avg, 0.37 bit/pixel
Аудио: 48 kHz, AC3 Dolby Digital, 3/2 (L,C,R,l,r) + LFE ch, ~448 kbps


Общее
Полное имя : H:\кино\Крайние меры.2010.HDRip.avi
Формат : AVI
Формат/Информация : Audio Video Interleave
Профиль формата : OpenDML
Размер файла : 2,20 Гбайт
Продолжительность : 1 ч. 45 м.
Общий поток : 2993 Кбит/сек
Название фильма : Крайние меры.2009.HDRip.avi
Режиссёр : Rip by coc900
Программа кодирования : VirtualDubMod 1.5.10.3 | www.virtualdub-fr.org || (build 2550/release)

Видео
Идентификатор : 0
Формат : MPEG-4 Visual
Профиль формата : Advanced Simple@L5
Параметр BVOP формата : 2
Параметр QPel формата : Нет
Параметр GMC формата : Без точки перехода
Параметр матрицы формата : Default (H.263)
Идентификатор кодека : XVID
Идентификатор кодека/Подсказка : XviD
Продолжительность : 1 ч. 45 м.
Битрейт : 2533 Кбит/сек
Ширина : 720 пикселей
Высота : 400 пикселей
Соотношение сторон : 16:9
Частота кадров : 23,976 кадра/сек
Цветовое пространство : YUV
Субдискретизация насыщенности : 4:2:0
Битовая глубина : 8 бит
Тип развёртки : Прогрессивная
Метод сжатия : С потерями
Бит/(Пиксели*Кадры) : 0.367
Размер потока : 1,86 Гбайт (85%)
Библиотека кодирования : XviD 1.2.1 (UTC 2008-12-04)

Аудио
Идентификатор : 1
Формат : AC-3
Формат/Информация : Audio Coding 3
Расширение режима : CM (complete main)
Параметр Endianness формата : Big
Идентификатор кодека : 2000
Продолжительность : 1 ч. 45 м.
Вид битрейта : Постоянный
Битрейт : 448 Кбит/сек
Каналы : 6 каналов
Расположение каналов : Front: L C R, Side: L R, LFE
Частота : 48,0 КГц
Битовая глубина : 16 бит
Метод сжатия : С потерями
Размер потока : 337 Мбайт (15%)
Выравнивание : Разделение по промежуткам
Продолжительность промежутка : 42 мс. (1,00 видеокадр)
Время предзагрузки промежутка : 500 мс.

pb.wtf



Скачать Крайние меры через торрент http://pic.kartinco.top/images/6/s3tsd.jpg Скачать фильм Крайние меры через торрент бесплантно в хорошем качестве Описание: Реальная история Джона Кроули, успешного американца, чей карьерный взлёт и безоблачное будущее в один момент были разрушены ... 9.3 10 6
Торрент: Зарегистрирован [2014-06-21 17:04] · скачан: 73 раз
Статус: √ проверено
Размер: 2.2 GB
Как cкачать? Как скачать Крайние меры через торрент | qTorrent

% Раздел Тема Автор DL S | L
Фильмы [HD 720p, 1080p] (Хороший звук DUB, MVO) [ 11.5 GB ] Крайние меры / Extraordinary Measures [2010 BDRip 1080p от _denis_100 / NNNB] MVO + Original + Sub _denis_100 Скачать
1 | 0
Фильмы 2010 [ 695 MB ] Крайние меры / Extraordinary Measures [2010 DVDRip] Reseption Скачать
1 | 0

28-11-2019 20:33  

Отключить всю рекламу на сайте

    Дорогой пользователь! Огромная просьба, поблагодарите релизера, оцените раздачу и оставьте свои комментарий, если Вы скачали Крайние меры через торрент бесплатно! Внесите свою лепту в развитие PiratBit!
    Комментировать посты могут только пользователи прошедшие не сложную регистрацию
    Показать сообщения:    

    Крайние меры через торрент
    Скачать бесплатно Крайние меры
    Крайние меры скачать торрент
    Крайние меры смотреть онлайн
    Cкачать фильм Крайние меры бесплатно
    Крайние меры скачать торрент в хорошем качестве
    Крайние меры смотреть онлайн бесплатно в хорошем качестве


    Вы не можете начинать темы
    Вы не можете отвечать на сообщения
    Вы не можете редактировать свои сообщения
    Вы не можете удалять свои сообщения
    Вы не можете голосовать в опросах
    Вы не можете прикреплять файлы к сообщениям
    Вы можете скачивать файлы