Ссылка на приватное зеркало нашего сайта всего за 1$. Внимание количество ограничено!!!

2 сезон

iTunes

1 сезон

1

iTunes

iTunes

iTunes

1 сезон

RePack

30

ИГРА 18+

pack

ВАЖНО

!!Акция!!

Alien_RageХит недели

RePack

MK11
pack

Забери бонус

RePack

jed

!!Акция!!

Alien_Rage

RePack

fifa19

RePack

Assassins Creed: Odyssey

RePack

NEED FOR SPEED™ PAYBACK

4 сезон

9 сезон

Бесстыжие 9 сезон

Все сериалы

все сериалы на PB.wtf

RePack

FAR CRY 5
  

Другая женщина / Серии:1-4 из 4 (Александр Басаев) [2014 г., Мелодрама, SATRip] pb.wtf

Другая женщина через торрент pb.wtf

Размер: 2.38 GB | Добавлен: 6 лет 4 мес. назад | Торрент скачан:504 раза
Скачать  

21-06-2014 20:56 Другая женщина Скачать торрент  

Другая женщина Год выпуска: 2014
Страна: Украина SPINTREX HOLDINGS LTD
Жанр: Мелодрама
Продолжительность: 4 х ~ 00:45:00

Режиссер: Александр Басаев

Премьера в мире: 21 июня 2014 (Беларусь-1), 26 июня 2014 (1+1, Украина)

В ролях: Анна Невская, Никита Салопин, Екатерина Порубель, Любомирас Лауцявичюс, Станислав Эрдлей, Ирина Тё, Елена Ященко

Описание: Аня и Валера Хохловы поженились в юности по большой любви, прожили вместе семнадцать счастливых лет, помотались по военным гарнизонам, воспитывают двух детей. Идиллия рушится, когда Валера решает уволиться из армии, чтобы заняться бизнесом, и привозит семью в крупный город. На дне рождения мужа Аня с ужасом узнает, что у Валеры есть любовница - яркая и сексуальная Ника, директор рекламного агентства. Валера даже не пытается оправдаться и признаётся, что Ника - не просто любовница, а любимая женщина. Аня благородно переносит предательство и без упреков и скандалов отпускает Валеру. Теперь Ане приходится выживать в джунглях большого города в одиночку. Изрядно помыкавшись и хлебнув горя, она устраивается работать личной помощницей деспотичного бизнесмена Горбунова. С этого момента жизнь Ани будет наполнена событиями до предела. Из блёклой провинциалки, домашней клуши, она превращается в другую женщину - отважную и бескомпромиссную, мудрую и наполненную женской силой. А затем - новые испытания: гибель Горбунова, ставшего для Ани очень дорогим человеком, известие о его ещё не рождённом ребенке от горничной Кати, неожиданно свалившееся наследство, смертельный враг, в которого влюбляется её повзрослевшая дочь Лена. Пытаясь спасти дочь, Аня сама оказывается на грани гибели. Но под удар ножа, который ей предназначался, бросается Валера...

Качество: SATRip
ФорматЖ AVI
Видео кодек: XviD
Аудио кодек: MP3
Видео: MPEG4, XviD, 720x400 (16:9), 25.000 fps, 1 800 Kbps (0.250 bit/pixel)
Аудио: MP3, 48.0 KHz, 2 ch, 128 Kbps, CBR

Релиз от: DGEKIGAN
скриншот   скриншот   скриншот   скриншот   скриншот   скриншот  скриншот   скриншот  





General
Format : AVI
Format/Info : Audio Video Interleave
File size : 614 MiB
Duration : 44mn 16s
Overall bit rate : 1 938 Kbps
Writing library : VirtualDub build 35491/release

Video
ID : 0
Format : MPEG-4 Visual
Codec ID : XVID
Codec ID/Hint : XviD
Duration : 44mn 16s
Bit rate : 1 724 Kbps
Width : 720 pixels
Height : 400 pixels
Display aspect ratio : 16:9
Frame rate : 25.000 fps
Color space : YUV
Chroma subsampling : 4:2:0
Compression mode : Lossy
Bits/(Pixel*Frame) : 0.239
Stream size : 546 MiB (89%)

Audio
ID : 1
Format : MPEG Audio
Codec ID : 55
Codec ID/Hint : MP3
Duration : 44mn 16s
Bit rate : 128 Kbps
Channel(s) : 2 channels
Sampling rate : 48.0 KHz
Compression mode : Lossy
Stream size : 40.5 MiB (7%)
Alignment : Aligned on interleaves

Внимание!Оценок от kinopoisk и imdb нет!!!pb.wtf



Скачать Другая женщина через торрент http://pic.kartinco.top/images/6/d14tl.jpg Скачать фильм Другая женщина через торрент бесплантно в хорошем качестве Описание: Аня и Валера Хохловы поженились в юности по большой любви, прожили вместе семнадцать счастливых лет, помотались по военным ... 9.6 10 14
Info! Золотая раздача, скачанное не засчитывается.
Торрент: Зарегистрирован [2014-06-21 20:56] · скачан: 504 раз
Статус: √ проверено
Размер: 2.38 GB
Как cкачать? Как скачать Другая женщина через торрент | qTorrent

28-11-2019 20:33  

Отключить всю рекламу на сайте

21-06-2014 23:43 Другая женщина Скачать торрент  

lug30,
Дооформил ваш релизpb.wtf



    Дорогой пользователь! Огромная просьба, поблагодарите релизера, оцените раздачу и оставьте свои комментарий, если Вы скачали Другая женщина через торрент бесплатно! Внесите свою лепту в развитие PiratBit!
    Комментировать посты могут только пользователи прошедшие не сложную регистрацию
    Показать сообщения:    

    Другая женщина через торрент
    Скачать бесплатно Другая женщина
    Другая женщина скачать торрент
    Другая женщина смотреть онлайн
    Cкачать фильм Другая женщина бесплатно
    Другая женщина скачать торрент в хорошем качестве
    Другая женщина смотреть онлайн бесплатно в хорошем качестве


    Вы не можете начинать темы
    Вы не можете отвечать на сообщения
    Вы не можете редактировать свои сообщения
    Вы не можете удалять свои сообщения
    Вы не можете голосовать в опросах
    Вы не можете прикреплять файлы к сообщениям
    Вы можете скачивать файлы