Ссылка на приватное зеркало всего за 1$. Внимание количество ограничено!!!

OK

1+1

iTunes

мы

OK

1

WEB-DLRip

Джокер

Пифагор

Ведьмак / The Witcher сериал

iTunes

ПШазам

ОК

Оно 2

iTunes

30
pack

Вам бонус

ВАЖНО

!!Акция!!

Alien_RageХит недели

RePack

Resident Evil 21

ИГРА 18+

pack

RePack

jed

RePack

fifa19

RePack

Assassins Creed: Odyssey

RePack

NEED FOR SPEED™ PAYBACK

4 сезон

9 сезон

Бесстыжие 9 сезон

Все сериалы

все сериалы на PB.wtf

RePack

FAR CRY 5
  

Студенты / Сезон: 1 / Серии 1-12 из ?? (Илья Аксенов) [ 2014 , Россия , комедия , WEB-DLRip] pb.wtf

Студенты через торрент pb.wtf

Размер: 3.24 GB | Добавлен: 5 лет 4 мес. назад | Торрент скачан:99 раз
Скачать  

22-06-2014 02:16 Студенты Скачать торрент  

Студенты
Год выпуска: 2014
Страна: Россия
Жанр: комедия
Продолжительность: ~00:23:06 (Серия)
Перевод: Не требуется
Субтитры: Нет
Режиссер: Илья Аксенов
Сценарий: Александр Коротков, Кирилл Легай, Дмитрий Потемкин, Илья Аксенов
Продюсер: Вячеслав Муругов, Дмитрий Табарчук
Оператор: Борис Кирисенко
В ролях:
Илья Аксенов, Александр Коротков, Кирилл Легай, Алексей Маклаков, Дмитрий Потемкин, Виктория Тарасова, Никита Лобанов
Описание:
Юмористический скетчком о том, с чем сталкиваются студенты разных вузов. Это молодёжный теле-журнал с ярким, дерзким и весёлым миром. В Студентах вы увидите знакомых вам «персонажей» любого вуза: алчного ректора, девушку, в которую влюблен весь курс, помешанных на компьютерных играх «гиков», дружинников, переоценивающих значимость своей работы, самоуверенных пятикурсников и многих других. Объединяет скетчи непринуждённый, неожиданный и по молодёжному абсурдный юмор.
Рейтинг
kinopoisk.ru: 4.333 (26)
Качество: WEB-DLRip
Формат: AVI
Видео кодек: XviD
Аудио кодек: MP3
Видео: ~1619 Кбит/сек, 720*400 (16:9), в 25,000 кадров/сек, MPEG-4 Visual (XviD)
Аудио: 128 Кбит/сек, 48,0 КГц, 2 канала, MPEG Audio (MP3)
Раздача ведётся путём добавления новых серийДобавлена 12 серия (13.09.2014)Просьба перекачать торрент файл

Внимание! Раздача ведётся путём добавления новых серий; при каждом добавлении создаётся новый торрент. Чтобы начать докачку новой серии, пользователям необходимо сделать следующее:
(1) остановить скачивание,
(2) удалить старый торрент у себя из клиента (старые серии удалять не надо),
(3) скачать новый торрент и запустить его у себя в клиенте вместо старого, при этом указать клиенту путь в старую папку куда и должно происходить скачивание новых серий.
Ваш клиент при этом должен произвести хеширование (проверку) старой папки (если не производит сам - помогите ему сделать это), и будет докачивать только те серии которых у вас ещё нет. Старые серии при этом не удаляются, а продолжают раздаваться!
Eсли вы уже удалили старые серии, то предотвратить повторную закачку старых серий можно, отжав галочку в соответсвующих местах при запуске нового торрента. По возможности, желательно не удалять старые серии как можно дольше чтобы релизёр не столько продолжал раздавать старые серии, а смог сконцентрироваться на новых.

Общее
Общее
Полное имя : G:\Studenti.2014.XviD.WEB-DLRip.ExKinoRay\Studenti.(07.seriya).2014.XviD.WEB-DLRip.ExKinoRay.avi
Формат : AVI
Формат/Информация : Audio Video Interleave
Размер файла : 276 Мбайт
Продолжительность : 21 м.
Общий поток : 1757 Кбит/сек
Программа кодирования : VirtualDubMod 1.5.10.2 (build 2540/release)
Библиотека кодирования : VirtualDubMod build 2540/release

Видео
Идентификатор : 0
Формат : MPEG-4 Visual
Профиль формата : Advanced Simple@L5
Параметр BVOP формата : 1
Параметр QPel формата : Нет
Параметр GMC формата : Без точки перехода
Параметр матрицы формата : Выборочная
Идентификатор кодека : XVID
Идентификатор кодека/Подсказка : XviD
Продолжительность : 21 м.
Битрейт : 1619 Кбит/сек
Ширина : 720 пикселей
Высота : 400 пикселей
Соотношение сторон : 16:9
Частота кадров : 25,000 кадров/сек
Цветовое пространство : YUV
Субдискретизация насыщенности : 4:2:0
Битовая глубина : 8 бит
Тип развёртки : Прогрессивная
Метод сжатия : С потерями
Бит/(Пиксели*Кадры) : 0.225
Размер потока : 255 Мбайт (92%)
Библиотека кодирования : XviD 1.2.1 (UTC 2008-12-04)

Аудио
Идентификатор : 1
Формат : MPEG Audio
Версия формата : Version 1
Профиль формата : Layer 3
Режим : Joint stereo
Расширение режима : MS Stereo
Идентификатор кодека : 55
Идентификатор кодека/Подсказка : MP3
Продолжительность : 21 м.
Вид битрейта : Постоянный
Битрейт : 128 Кбит/сек
Каналы : 2 канала
Частота : 48,0 КГц
Метод сжатия : С потерями
Размер потока : 20,1 Мбайт (7%)
Выравнивание : Соединение по промежуткам
Продолжительность промежутка : 40 мс. (1,00 видеокадр)
Время предзагрузки промежутка : 504 мс.
Библиотека кодирования : LAME3.98r
Настройки программы : -m j -V 4 -q 2 -lowpass 17 -b 128

скриншот   скриншот   скриншот   скриншот   скриншот  
pb.wtf



Скачать Студенты через торрент http://pic.kartinco.top/new/img/2014-06/22/yfxcyxwzjw6qx5q8gsivyua8z.jpg Скачать фильм Студенты через торрент бесплантно в хорошем качестве Описание:Юмористический скетчком о том, с чем сталкиваются студенты разных вузов. Это молодёжный теле-журнал с ярким, дерзким и весёлым ... 8.7 10 27
Info! Серебряная раздача, засчитывается только 50% скачанного.
Торрент: Зарегистрирован [2014-09-13 02:33] · скачан: 99 раз
Статус: √ проверено
Размер: 3.24 GB
Как cкачать? Как скачать Студенты через торрент | qTorrent



Последний раз редактировалось: GEKADOL (2014-09-13 02:33), всего редактировалось 12 раз(а)

28-11-2019 20:33  

Отключить всю рекламу на сайте

22-06-2014 14:01 Студенты Скачать торрент  

Чо то как-то не вкатило,Автору спс)))pb.wtf



23-06-2014 15:21 Студенты Скачать торрент  

Стоит смотреть?pb.wtf



23-06-2014 15:43 Студенты Скачать торрент  

Универ-ремейк ?pb.wtf



23-06-2014 15:48 Студенты Скачать торрент  

далеко не универ что то типа тогда уж Даёшь молодёжь,только еще хуже полнейшее унылое говно!pb.wtf



25-06-2014 05:52 Студенты Скачать торрент  

Да уж !!!!!!!!!!! pb.wtf



31-07-2014 12:42 Студенты Скачать торрент  

ranetka09 писал(а):

далеко не универ что то типа тогда уж Даёшь молодёжь,только еще хуже полнейшее унылое !

Вот только не надо горячку пороть! Сериал отличный, смешной! без тупи и пошлости!pb.wtf



31-07-2014 12:43 Студенты Скачать торрент  

DJ King Timmy писал(а):

ranetka09 писал(а):

далеко не универ что то типа тогда уж Даёшь молодёжь,только еще хуже полнейшее унылое !

Вот только не надо горячку пороть! Сериал отличный, смешной! без тупи и пошлости!

Универ вообще говнища тупая!!!!!pb.wtf



    Дорогой пользователь! Огромная просьба, поблагодарите релизера, оцените раздачу и оставьте свои комментарий, если Вы скачали Студенты через торрент бесплатно! Внесите свою лепту в развитие PiratBit!
    Комментировать посты могут только пользователи прошедшие не сложную регистрацию
    Показать сообщения:    

    Студенты через торрент
    Скачать бесплатно Студенты
    Студенты скачать торрент
    Студенты смотреть онлайн
    Cкачать фильм Студенты бесплатно
    Студенты скачать торрент в хорошем качестве
    Студенты смотреть онлайн бесплатно в хорошем качестве


    Вы не можете начинать темы
    Вы не можете отвечать на сообщения
    Вы не можете редактировать свои сообщения
    Вы не можете удалять свои сообщения
    Вы не можете голосовать в опросах
    Вы не можете прикреплять файлы к сообщениям
    Вы можете скачивать файлы