2 сезон

iTunes

MVO

1

2 сезон

iTunes

iTunes

1 сезон

RePack

30

Ultimate

ВАЖНО

ИГРА 18+

pack

RePack

MK11
pack

Легкие деньги

RePack

jed

RePack

fifa19

RePack

RDR2

RePack

NEED FOR SPEED™ PAYBACK

4 сезон

9 сезон

Бесстыжие 9 сезон

Все сериалы

все сериалы на PB.wtf

RePack

FAR CRY 5

Anonymous, добрый вечер, мы не успеваем собрать деньги на оплату серверов за декабрь и январь, помогите нам пожалуйста в это трудное время. В качестве благодарности мы отключим Вам всю рекламу на сайте (укажите свой ник в строку Ваше имя)!

×
  
Magnet ссылка

Вулкан страстей / Eyjafjallajökull (Александр Коффре / Alexandre Coffre) [2013, Франция, Бельгия, комедия, приключения, HDRip,Дубляж - [Лицензия] pb.wtf

Вулкан страстей через торрент pb.wtf

Размер: 700 MB | Добавлен: 6 лет 7 мес. назад | Торрент скачан:183 раза
Скачать  

22-06-2014 08:34 Вулкан страстей Скачать торрент  

Вулкан страстей / Eyjafjallajökull
«Бывший - хуже стихии»

Год выпуска: 2013
Страна: Франция, Бельгия
Жанр:комедия, приключения
Продолжительность:01:31:53
Перевод:Дубляж - [Лицензия]

Субтитры: Нет
Режиссер:Александр Коффре / Alexandre Coffre

  • В ролях:

    Валери Боннетон (Valérie), Дэни Бун (Alain), Дени Меноше (Ezéchiel), Альберт Дельпи (Tonton Roger), Беранжер МакНис (Cécile), Малик Бенталха (Ami Cécile), Констанс Долле (Sylvie), Мириам Азенкот (Voisine avion), Арно Анриет (Voisin avion Alain), Ян Сортон (Stewart grec), Йохен Хаэгеле (Agent Avis Allemagne), Барбара Орнеллас (Femme autocar)

  • Описание:
    Где бы вы не хотели встретиться со своим бывшим? Только не в соседнем кресле самолета, чтобы пережить вместе длинный перелет. И уж точно не в одной машине, чтобы вопреки исландскому вулкану с непроизносимым названием, пересечь всю Европу. Когда вы страстно ненавидите друг друга, может случиться всякое. И угон самолета, и авария, и побег из полиции и даже... возвращение романтики.

  • Мировая премьера:24 августа 2013


      Качество: HDRip
      Формат: AVI
      Видео кодек: XviD
      Аудио кодек:MP3
      Видео: XviD, 640x272 (2.35:1), 927 kbps, 24 fps, 0,222 bpp
      Аудио: MP3 / 2.0 / 48 kHz / 128 kbps /


    Код:

    General
    Complete name                            : D:\Торенты\Vylkan.Strastej.2013.D.HDRip700.avi
    Format                                   : AVI
    Format/Info                              : Audio Video Interleave
    File size                                : 700 MiB
    Duration                                 : 1h 31mn
    Overall bit rate                         : 1 065 Kbps
    Writing application                      : VirtualDubMod 1.5.10.2 (build 2540/release)
    Writing library                          : VirtualDubMod build 2540/release

    Video
    ID                                       : 0
    Format                                   : MPEG-4 Visual
    Format profile                           : Advanced Simple@L5
    Format settings, BVOP                    : 2
    Format settings, QPel                    : No
    Format settings, GMC                     : No warppoints
    Format settings, Matrix                  : Default (MPEG)
    Codec ID                                 : XVID
    Codec ID/Hint                            : XviD
    Duration                                 : 1h 31mn
    Bit rate                                 : 928 Kbps
    Width                                    : 640 pixels
    Height                                   : 272 pixels
    Display aspect ratio                     : 2.35:1
    Frame rate                               : 24.000 fps
    Color space                              : YUV
    Chroma subsampling                       : 4:2:0
    Bit depth                                : 8 bits
    Scan type                                : Progressive
    Compression mode                         : Lossy
    Bits/(Pixel*Frame)                       : 0.222
    Stream size                              : 610 MiB (87%)
    Writing library                          : XviD 1.2.1 (UTC 2008-12-04)

    Audio
    ID                                       : 1
    Format                                   : MPEG Audio
    Format version                           : Version 1
    Format profile                           : Layer 3
    Mode                                     : Joint stereo
    Mode extension                           : MS Stereo
    Codec ID                                 : 55
    Codec ID/Hint                            : MP3
    Duration                                 : 1h 31mn
    Bit rate mode                            : Constant
    Bit rate                                 : 128 Kbps
    Channel(s)                               : 2 channels
    Sampling rate                            : 48.0 KHz
    Compression mode                         : Lossy
    Stream size                              : 84.1 MiB (12%)
    Alignment                                : Aligned on interleaves
    Interleave, duration                     : 42 ms (1.00 video frame)
    Interleave, preload duration             : 504 ms

    Скриншоты:

    Каталог Новинок (Фильмы-трейлеры, Игры, Сериалы, Мультфильмы)

    © Оформление by Raven
    pb.wtf



  • Скачать Вулкан страстей через торрент http://i63.fastpic.ru/big/2014/0622/83/cf0d0b1e1ceec5d6387e026d325b5483.jpg Скачать фильм Вулкан страстей через торрент бесплантно в хорошем качестве Описание:Где бы вы не хотели встретиться со своим бывшим? Только не в соседнем кресле самолета, чтобы пережить вместе длинный перелет. И уж ... 9.8 10 12
    Торрент: Зарегистрирован [2014-06-22 08:34] · скачан: 183 раз
    Статус: √ проверено
    Размер: 700 MB
    Как cкачать? Как скачать Вулкан страстей через торрент | UTorrent

    28-11-2019 20:33  

    Отключить всю рекламу на сайте

      Дорогой пользователь! Огромная просьба, поблагодарите релизера, оцените раздачу и оставьте свои комментарий, если Вы скачали Вулкан страстей через торрент бесплатно! Внесите свою лепту в развитие PiratBit!
      Комментировать посты могут только пользователи прошедшие не сложную регистрацию
      Показать сообщения:    

      Вулкан страстей через торрент
      Скачать бесплатно Вулкан страстей
      Вулкан страстей скачать торрент
      Вулкан страстей смотреть онлайн
      Cкачать фильм Вулкан страстей бесплатно
      Вулкан страстей скачать торрент в хорошем качестве
      Вулкан страстей смотреть онлайн бесплатно в хорошем качестве


      Вы не можете начинать темы
      Вы не можете отвечать на сообщения
      Вы не можете редактировать свои сообщения
      Вы не можете удалять свои сообщения
      Вы не можете голосовать в опросах
      Вы не можете прикреплять файлы к сообщениям
      Вы можете скачивать файлы