Ссылка на приватное зеркало нашего сайта всего за 1$. Внимание количество ограничено!!!

2 сезон

iTunes

1 сезон

1

iTunes

iTunes

iTunes

1 сезон

RePack

30

ИГРА 18+

pack

ВАЖНО

!!Акция!!

Alien_RageХит недели

RePack

MK11
pack

Забери бонус

RePack

jed

!!Акция!!

Alien_Rage

RePack

fifa19

RePack

Assassins Creed: Odyssey

RePack

NEED FOR SPEED™ PAYBACK

4 сезон

9 сезон

Бесстыжие 9 сезон

Все сериалы

все сериалы на PB.wtf

RePack

FAR CRY 5
  

Самый крутой / Top Dog (Мартин Кемп) [2014 г., драма, криминал, DVDRip, Любительский одноголосый] pb.wtf

Самый крутой через торрент pb.wtf

Размер: 2.03 GB | Добавлен: 6 лет 4 мес. назад | Торрент скачан:239 раз
Скачать  

22-06-2014 09:32 Самый крутой Скачать торрент  

Самый крутой / Top Dog
Год выпуска: 2014
Страна: Великобритания / Richwater Films
Жанр: драма, криминал
Продолжительность: 01:31:42
Перевод: Любительский одноголосый (datynet)

Режиссер: Мартин Кемп

В ролях: Винсент Риган, Лео Грегори, Лейла Вонг, Риччи Харнетт, Адриан Палмер, Сьюзен Пенхалигон, Райан Олива, Ричард Бэнкс, Мэтт Джонс, Леа Перкинс

Описание: Билли Эванс является лидером отъявленных хулиганов, футбольных фанатов клуба «Тоттенхэм Хотспур». Билли откровенно наслаждается своей жизнью, считая, что он может быть выше закона. Одновременно он ведет жизнь простого обывателя, любит свою жену Саманту, заботится о ближних, готов выручить тетушку и дядю, попавших в неприятную историю с местным преступным авторитетом. Но когда Билли начинает путать его деятельность мелкого хулигана с преступным миром, в который он погружается быстро и безболезненно, это приводит к катастрофическим последствиям…

Качество: DVDRip
Формат: AVI
Видео кодек: XviD
Аудио кодек: AC3
Видео: 720x304 (2.37:1), 25 fps, XviD build 50 ~2965 kbps avg, 0.54 bit/pixel
Аудио: 48 kHz, AC3 Dolby Digital, 2/0 (L,R) ch, ~192 kbps
скриншот   скриншот   скриншот   скриншот   скриншот   скриншот   скриншот   скриншот  

Общее
Полное имя : H:\кино\Top.Dog.2014.DVDRip.avi
Формат : AVI
Формат/Информация : Audio Video Interleave
Профиль формата : OpenDML
Размер файла : 2,03 Гбайт
Продолжительность : 1 ч. 31 м.
Общий поток : 3164 Кбит/сек
Программа кодирования : VirtualDubMod 1.5.10.3 | www.virtualdub-fr.org || (build 2550/release)
Библиотека кодирования : VirtualDubMod build 2550/release

Видео
Идентификатор : 0
Формат : MPEG-4 Visual
Профиль формата : Advanced Simple@L5
Параметр BVOP формата : 2
Параметр QPel формата : Нет
Параметр GMC формата : Без точки перехода
Параметр матрицы формата : Default (H.263)
Идентификатор кодека : XVID
Идентификатор кодека/Подсказка : XviD
Продолжительность : 1 ч. 31 м.
Битрейт : 2959 Кбит/сек
Ширина : 720 пикселей
Высота : 304 пикселя
Соотношение сторон : 2,35:1
Частота кадров : 25,000 кадров/сек
Цветовое пространство : YUV
Субдискретизация насыщенности : 4:2:0
Битовая глубина : 8 бит
Тип развёртки : Прогрессивная
Метод сжатия : С потерями
Бит/(Пиксели*Кадры) : 0.541
Размер потока : 1,90 Гбайт (94%)
Библиотека кодирования : XviD 1.2.1 (UTC 2008-12-04)

Аудио
Идентификатор : 1
Формат : AC-3
Формат/Информация : Audio Coding 3
Расширение режима : CM (complete main)
Параметр Endianness формата : Big
Идентификатор кодека : 2000
Продолжительность : 1 ч. 31 м.
Вид битрейта : Постоянный
Битрейт : 192 Кбит/сек
Каналы : 2 канала
Расположение каналов : Front: L R
Частота : 48,0 КГц
Битовая глубина : 16 бит
Метод сжатия : С потерями
Размер потока : 126 Мбайт (6%)
Выравнивание : Разделение по промежуткам
Продолжительность промежутка : 40 мс. (1,00 видеокадр)
Время предзагрузки промежутка : 500 мс.

pb.wtf



Скачать Самый крутой через торрент http://pic.kartinco.top/images/6/6dxmz.jpg Скачать фильм Самый крутой через торрент бесплантно в хорошем качестве Описание: Билли Эванс является лидером отъявленных хулиганов, футбольных фанатов клуба «Тоттенхэм Хотспур». Билли откровенно наслаждается ... 10 10 4
Торрент: Зарегистрирован [2014-06-22 09:32] · скачан: 239 раз
Статус: √ проверено
Размер: 2.03 GB
Как cкачать? Как скачать Самый крутой через торрент | qTorrent

% Раздел Тема Автор DL S | L
Фильмы с авторской озвучкой [ 1.46 GB ] Самый крутой / Top Dog [2014 HDRip Авторский одноголосый "М. Яроцкий"] coc900 Скачать
1 | 0
Фильмы с авторской озвучкой [ 4.28 GB ] Самый крутой / Top Dog [2014 BDRip 720p Авторский Ворон Скачать
1 | 0

28-11-2019 20:33  

Отключить всю рекламу на сайте

    Дорогой пользователь! Огромная просьба, поблагодарите релизера, оцените раздачу и оставьте свои комментарий, если Вы скачали Самый крутой через торрент бесплатно! Внесите свою лепту в развитие PiratBit!
    Комментировать посты могут только пользователи прошедшие не сложную регистрацию
    Показать сообщения:    

    Самый крутой через торрент
    Скачать бесплатно Самый крутой
    Самый крутой скачать торрент
    Самый крутой смотреть онлайн
    Cкачать фильм Самый крутой бесплатно
    Самый крутой скачать торрент в хорошем качестве
    Самый крутой смотреть онлайн бесплатно в хорошем качестве


    Вы не можете начинать темы
    Вы не можете отвечать на сообщения
    Вы не можете редактировать свои сообщения
    Вы не можете удалять свои сообщения
    Вы не можете голосовать в опросах
    Вы не можете прикреплять файлы к сообщениям
    Вы можете скачивать файлы