Ссылка на приватное зеркало нашего сайта всего за 1$. Внимание количество ограничено!!!

2 сезон

iTunes

1 сезон

1

iTunes

iTunes

iTunes

1 сезон

RePack

30

ИГРА 18+

pack

ВАЖНО

!!Акция!!

Alien_RageХит недели

RePack

MK11
pack

Забери бонус

RePack

jed

!!Акция!!

Alien_Rage

RePack

fifa19

RePack

Assassins Creed: Odyssey

RePack

NEED FOR SPEED™ PAYBACK

4 сезон

9 сезон

Бесстыжие 9 сезон

Все сериалы

все сериалы на PB.wtf

RePack

FAR CRY 5
  

Рейд 2 / The Raid 2: Berandal (Гарет Эванс ) [2014, боевик, триллер, криминал, BDRip 1080p, Дубляж [Лицензия / iTunes] от R.G. HD-Films pb.wtf

Рейд 2 через торрент pb.wtf

Размер: 12.72 GB | Добавлен: 6 лет 2 мес. назад | Торрент скачан:380 раз
Скачать  

23-06-2014 03:00 Рейд 2 Скачать торрент  

Рейд 2 / The Raid 2: Berandal
«Один против всех»

Год выпуска: 2014
Страна: Индонезия, США
Жанр:боевик, триллер, криминал
Продолжительность:02:30:28
Перевод: Дубляж - [Лицензия/ iTunes]
Субтитры: Вшитые отключаемые
Язык субтитров: Русские (полные), английские (форс., полные, SDH)
Режиссер:Гарет Эванс / Gareth Evans

  • В ролях:

    Ико Ювайс (Rama / Yuda), Арифин Путра (Uco), Джули Эстелль (Hammer Girl), Яян Рухьян (Prakoso), Дони Аламсях (Andi), Ока Антара (Eka), Кадзуки Китамура (Ryuichi), Тио Пакусодево (Bangun), Алекс Аббад (Bejo), Сесеп Ариф Рахман (The Assassin), Рюхэй Мацуда (Keiichi), Кэнити Эндо (Goto)

  • Описание:
    Из трех полицейских, выбравшихся из кровавого ада первой части, в живых остается только офицер Рама. Уволившись из спецназа, он пробует начать жизнь заново, но вскоре прошлое жестко напоминает о себе - преступники убивают его брата. Чтобы отомстить, он внедряется в мощный криминальный синдикат, где быстро поднимается до самых вершин бандитской иерархии. Врагов здесь еще больше, и каждый неверный шаг может оказаться последним. Здесь нет ни близких, ни друзей, ни любви, ни тоски, ни жалости!

  • Мировая премьера:21 января 2014


      Качество:BDRip 1080p
      Формат: MKV
      Видео кодек: AVC
      Аудио кодек:AC3
      Видео: AVC, 1920x796 (2.40:1), 23.976 fps, 10.2 Mbps (0.278 bit/pixel)
      Аудио 1: AC3, 6 каналов, 384 Кбит/сек | Русский - [Дубляж - Лицензия/ iTunes]
      Аудио 2: AC3, 6 каналов, 448 Кбит/сек | Русский AVO- А. Матвеев
      Аудио 3: AC3, 6 каналов, 448 Кбит/сек | Русский AVO- Д. Есарев
      Аудио 4: AC3, 6 каналов, 640 Кбит/сек | Индонезийский
      Навигация по главам: есть


    Код:

    Общее
    Уникальный идентификатор                 : 195794232516210822821316299065639871803 (0x934C98F7FF25328F9FCE580365B4A53B)
    Полное имя                               : D:\Торенты\Рейд 2 (2014) BDRip 1080p.Release for Piratbit.net_R.G. HD-Films .mkv
    Формат                                   : Matroska
    Версия формата                           : Version 4 / Version 2
    Размер файла                             : 12,7 Гбайт
    Продолжительность                        : 2 ч. 30 м.
    Общий поток                              : 12,1 Мбит/сек
    Название фильма                          :  Release for Piratbit.net_R.G. HD-Films
    Дата кодирования                         : UTC 2014-07-24 03:07:29
    Программа кодирования                    : mkvmerge v6.7.0 ('Back to the Ground') 64bit built on Jan  8 2014 15:10:52
    Библиотека кодирования                   : libebml v1.3.0 + libmatroska v1.4.1
    Attachment                               : Yes

    Видео
    Идентификатор                            : 1
    Формат                                   : AVC
    Формат/Информация                        : Advanced Video Codec
    Профиль формата                          : High@L4.1
    Параметр CABAC формата                   : Да
    Параметр ReFrames формата                : 5 кадров
    Идентификатор кодека                     : V_MPEG4/ISO/AVC
    Продолжительность                        : 2 ч. 30 м.
    Битрейт                                  : 10,2 Мбит/сек
    Ширина                                   : 1920 пикселей
    Высота                                   : 796 пикселей
    Соотношение сторон                       : 2,40:1
    Режим частоты кадров                     : Постоянный
    Частота кадров                           : 23,976 кадра/сек
    Цветовое пространство                    : YUV
    Субдискретизация насыщенности            : 4:2:0
    Битовая глубина                          : 8 бит
    Тип развёртки                            : Прогрессивная
    Бит/(Пиксели*Кадры)                      : 0.278
    Размер потока                            : 10,4 Гбайт (82%)
    Заголовок                                : Release for Piratbit.net_R.G. HD-Films
    Библиотека кодирования                   : x264 core 142 r2431 ac76440
    Настройки программы                      : cabac=1 / ref=5 / deblock=1:-3:-3 / analyse=0x3:0x113 / me=umh / subme=10 / psy=1 / psy_rd=1.00:0.05 / mixed_ref=1 / me_range=32 / chroma_me=1 / trellis=2 / 8x8dct=1 / cqm=0 / deadzone=21,11 / fast_pskip=0 / chroma_qp_offset=-2 / threads=18 / lookahead_threads=1 / sliced_threads=0 / nr=0 / decimate=1 / interlaced=0 / bluray_compat=0 / constrained_intra=0 / bframes=5 / b_pyramid=2 / b_adapt=2 / b_bias=0 / direct=3 / weightb=1 / open_gop=0 / weightp=2 / keyint=250 / keyint_min=23 / scenecut=40 / intra_refresh=0 / rc=2pass / mbtree=0 / bitrate=10178 / ratetol=1.0 / qcomp=0.70 / qpmin=0 / qpmax=69 / qpstep=4 / cplxblur=20.0 / qblur=0.5 / ip_ratio=1.40 / pb_ratio=1.30 / aq=2:0.90
    Язык                                     : Russian
    Default                                  : Да
    Forced                                   : Нет

    Аудио #1
    Идентификатор                            : 2
    Формат                                   : AC-3
    Формат/Информация                        : Audio Coding 3
    Расширение режима                        : CM (complete main)
    Параметр Endianness формата              : Big
    Идентификатор кодека                     : A_AC3
    Продолжительность                        : 2 ч. 30 м.
    Вид битрейта                             : Постоянный
    Битрейт                                  : 384 Кбит/сек
    Каналы                                   : 6 каналов
    Расположение каналов                     : Front: L C R, Side: L R, LFE
    Частота                                  : 48,0 КГц
    Битовая глубина                          : 16 бит
    Метод сжатия                             : С потерями
    Размер потока                            : 413 Мбайт (3%)
    Язык                                     : Russian
    Default                                  : Да
    Forced                                   : Да

    Аудио #2
    Идентификатор                            : 3
    Формат                                   : AC-3
    Формат/Информация                        : Audio Coding 3
    Расширение режима                        : CM (complete main)
    Параметр Endianness формата              : Big
    Идентификатор кодека                     : A_AC3
    Продолжительность                        : 2 ч. 30 м.
    Вид битрейта                             : Постоянный
    Битрейт                                  : 448 Кбит/сек
    Каналы                                   : 6 каналов
    Расположение каналов                     : Front: L C R, Side: L R, LFE
    Частота                                  : 48,0 КГц
    Битовая глубина                          : 16 бит
    Метод сжатия                             : С потерями
    Размер потока                            : 482 Мбайт (4%)
    Заголовок                                : Рђ. Матвеев
    Язык                                     : Russian
    Default                                  : Нет
    Forced                                   : Нет

    Аудио #3
    Идентификатор                            : 4
    Формат                                   : AC-3
    Формат/Информация                        : Audio Coding 3
    Расширение режима                        : CM (complete main)
    Параметр Endianness формата              : Big
    Идентификатор кодека                     : A_AC3
    Продолжительность                        : 2 ч. 30 м.
    Вид битрейта                             : Постоянный
    Битрейт                                  : 448 Кбит/сек
    Каналы                                   : 6 каналов
    Расположение каналов                     : Front: L C R, Side: L R, LFE
    Частота                                  : 48,0 КГц
    Битовая глубина                          : 16 бит
    Метод сжатия                             : С потерями
    Размер потока                            : 482 Мбайт (4%)
    Заголовок                                : Р”. Есарев
    Язык                                     : Russian
    Default                                  : Нет
    Forced                                   : Нет

    Аудио #4
    Идентификатор                            : 5
    Формат                                   : AC-3
    Формат/Информация                        : Audio Coding 3
    Расширение режима                        : CM (complete main)
    Параметр Endianness формата              : Big
    Идентификатор кодека                     : A_AC3
    Продолжительность                        : 2 ч. 30 м.
    Вид битрейта                             : Постоянный
    Битрейт                                  : 640 Кбит/сек
    Каналы                                   : 6 каналов
    Расположение каналов                     : Front: L C R, Side: L R, LFE
    Частота                                  : 48,0 КГц
    Битовая глубина                          : 16 бит
    Метод сжатия                             : С потерями
    Размер потока                            : 689 Мбайт (5%)
    Язык                                     : Indonesian
    Default                                  : Нет
    Forced                                   : Нет

    Текст
    Идентификатор                            : 6
    Формат                                   : UTF-8
    Идентификатор кодека                     : S_TEXT/UTF8
    Идентификатор кодека/Информация          : UTF-8 Plain Text
    Заголовок                                : Full | Рђ. Матвеев
    Язык                                     : Russian
    Default                                  : Нет
    Forced                                   : Нет

    Меню
    00:00:00.000                             : en:00:00:00.000
    00:08:02.315                             : en:00:08:02.315
    00:14:03.217                             : en:00:14:03.217
    00:21:08.893                             : en:00:21:08.893
    00:31:45.487                             : en:00:31:45.487
    00:42:22.123                             : en:00:42:22.123
    00:50:55.177                             : en:00:50:55.177
    01:01:58.423                             : en:01:01:58.423
    01:11:49.764                             : en:01:11:49.764
    01:24:47.165                             : en:01:24:47.165
    01:36:31.995                             : en:01:36:31.995
    01:44:18.752                             : en:01:44:18.752
    01:48:31.714                             : en:01:48:31.714
    01:57:20.283                             : en:01:57:20.283
    02:05:59.093                             : en:02:05:59.093
    02:20:02.894                             : en:02:20:02.894

    Скриншоты:

    Каталог Новинок (Фильмы-трейлеры, Игры, Сериалы, Мультфильмы)

    Релиз подготовлен специально для Piratbit.net. by Raven
    pb.wtf



  • Скачать Рейд 2 через торрент http://pic.kartinco.top/new/img/2014-07/24/34n1zskw45qv5sym9nuwjb0z1.png Скачать фильм Рейд 2 через торрент бесплантно в хорошем качестве Описание:Из трех полицейских, выбравшихся из кровавого ада первой части, в живых остается только офицер Рама. Уволившись из спецназа, он ... 10 10 31
    Info! Золотая раздача, скачанное не засчитывается.
    Торрент: Зарегистрирован [2014-07-24 03:27] · скачан: 380 раз
    Статус: √ проверено
    Размер: 12.72 GB
    Как cкачать? Как скачать Рейд 2 через торрент | qTorrent

    % Раздел Тема Автор DL S | L
    Фильмы 2014 [DVDrip, WEB-DLRip, HDrip] [ 2.11 GB ] Рейд 2 / The Raid 2: Berandal [2014 HDRip-AVC От R.G. PiratFilms White Smoke Скачать
    1 | 0

    28-11-2019 20:33  

    Отключить всю рекламу на сайте

    24-07-2014 12:36 Рейд 2 Скачать торрент  

    Хороший фильм и зубодробительный мордобой!!pb.wtf



    25-07-2014 03:39 Рейд 2 Скачать торрент  

    Большое спасибо, давно ждал качества, наконец то посмотрю ))))pb.wtf



      Дорогой пользователь! Огромная просьба, поблагодарите релизера, оцените раздачу и оставьте свои комментарий, если Вы скачали Рейд 2 через торрент бесплатно! Внесите свою лепту в развитие PiratBit!
      Комментировать посты могут только пользователи прошедшие не сложную регистрацию
      Показать сообщения:    

      Рейд 2 через торрент
      Скачать бесплатно Рейд 2
      Рейд 2 скачать торрент
      Рейд 2 смотреть онлайн
      Cкачать фильм Рейд 2 бесплатно
      Рейд 2 скачать торрент в хорошем качестве
      Рейд 2 смотреть онлайн бесплатно в хорошем качестве


      Вы не можете начинать темы
      Вы не можете отвечать на сообщения
      Вы не можете редактировать свои сообщения
      Вы не можете удалять свои сообщения
      Вы не можете голосовать в опросах
      Вы не можете прикреплять файлы к сообщениям
      Вы можете скачивать файлы