Ссылка на приватное зеркало нашего сайта всего за 1$. Внимание количество ограничено!!!

2 сезон

iTunes

1 сезон

1

iTunes

iTunes

iTunes

1 сезон

RePack

30

ИГРА 18+

pack

ВАЖНО

!!Акция!!

Alien_RageХит недели

RePack

MK11
pack

Забери бонус

RePack

jed

!!Акция!!

Alien_Rage

RePack

fifa19

RePack

Assassins Creed: Odyssey

RePack

NEED FOR SPEED™ PAYBACK

4 сезон

9 сезон

Бесстыжие 9 сезон

Все сериалы

все сериалы на PB.wtf

RePack

FAR CRY 5
  

Московские сумерки (2 серии из 2) (Алена Званцова) [2013 г., Мелодрама, мистика, WEB-DLRip] pb.wtf

Московские сумерки через торрент pb.wtf

Размер: 1.17 GB | Добавлен: 6 лет 3 мес. назад | Торрент скачан:261 раз
Скачать  

10-02-2014 09:17 Московские сумерки Скачать торрент  

Московские сумерки

Год выпуска: 2013
Страна: Россия
Выпущено: Марсмедия
Жанр: Мелодрама, мистика,
Продолжительность: 2 x ~ 00:45:00
Язык: Русский

Режиссер: Алена Званцова
Продюссер: Рубен Дишдишян, Анна Меликян
Сценарий: Алена Званцова



В ролях: Тимур Бадалбейли, Игорь Гордин, Ксения Каталымова, Яна Гладких, Константин Гацалов, Арина Нестерова, Анна Башенкова, Владимир Скворцов, Владимир Виноградов, Олег Мазуров, Мария Константинова (II), Юлия Лебедева

Описание: Куда податься «неприкаянному» призраку, которого не принимают ни в ад, ни в рай? Конечно же, в лоно семьи. Но есть проблема — контакт с любимой женой невозможен. Но однажды призрак знакомится с себе подобными, и это приводит к совершенно неожиданным последствиям

Качество: WEB-DLRip
Формат: AVI
Видео кодек: XviD
Аудио кодек: AC3
Видео: XviD, ~ 1640 Кбит/с, 720x400, 25.000 fps, (Bits/Pixel): 0.228
Аудио: AC3, 2 ch, 192 Кбит/с, 44.1 KHz
General
Complete name : /etc/seedbox/home/kep/data/Moskovskie.sumerki.WEBDLRip/Moskovskie.sumerki.01.WEBDLRip.avi
Format : AVI
Format/Info : Audio Video Interleave
File size : 600 MiB
Duration : 45mn 28s
Overall bit rate : 1 843 Kbps
Writing application : VirtualDubMod 1.5.10.3 | www.virtualdub-fr.org || (build 2550/release)
Writing library : VirtualDubMod build 2550/release

Video
ID : 0
Format : MPEG-4 Visual
Format profile : Advanced Simple@L5
Format settings, BVOP : 1
Format settings, QPel : No
Format settings, GMC : No warppoints
Format settings, Matrix : Custom
Codec ID : XVID
Codec ID/Hint : XviD
Duration : 45mn 28s
Bit rate : 1 642 Kbps
Width : 720 pixels
Height : 400 pixels
Display aspect ratio : 16:9
Frame rate : 25.000 fps
Color space : YUV
Chroma subsampling : 4:2:0
Bit depth : 8 bits
Scan type : Progressive
Compression mode : Lossy
Bits/(Pixel*Frame) : 0.228
Stream size : 534 MiB (89%)
Writing library : XviD 1.2.1 (UTC 2008-12-04)

Audio
ID : 1
Format : AC-3
Format/Info : Audio Coding 3
Mode extension : CM (complete main)
Format settings, Endianness : Big
Codec ID : 2000
Duration : 45mn 28s
Bit rate mode : Constant
Bit rate : 192 Kbps
Channel count : 2 channels
Channel positions : Front: L R
Sampling rate : 44.1 KHz
Bit depth : 16 bits
Compression mode : Lossy
Stream size : 62.5 MiB (10%)
Alignment : Split accross interleaves
Interleave, duration : 40 ms (1.00 video frame)
Interleave, preload duration : 500 ms
pb.wtf



Скачать Московские сумерки через торрент http://i3.imageban.ru/out/2014/02/10/d1646115fe159c445a964c5f9f660435.png Скачать фильм Московские сумерки через торрент бесплантно в хорошем качестве Описание: Куда податься «неприкаянному» призраку, которого не принимают ни в ад, ни в рай? Конечно же, в лоно семьи. Но есть проблема — ... 8.3 10 23
Торрент: Зарегистрирован [2014-06-23 08:17] · скачан: 261 раз
Статус: √ проверено
Размер: 1.17 GB
Как cкачать? Как скачать Московские сумерки через торрент | qTorrent

28-11-2019 20:33  

Отключить всю рекламу на сайте

11-02-2014 03:30 Московские сумерки Скачать торрент  

отличный фильм советую смотретьpb.wtf



    Дорогой пользователь! Огромная просьба, поблагодарите релизера, оцените раздачу и оставьте свои комментарий, если Вы скачали Московские сумерки через торрент бесплатно! Внесите свою лепту в развитие PiratBit!
    Комментировать посты могут только пользователи прошедшие не сложную регистрацию
    Показать сообщения:    

    Московские сумерки через торрент
    Скачать бесплатно Московские сумерки
    Московские сумерки скачать торрент
    Московские сумерки смотреть онлайн
    Cкачать фильм Московские сумерки бесплатно
    Московские сумерки скачать торрент в хорошем качестве
    Московские сумерки смотреть онлайн бесплатно в хорошем качестве


    Вы не можете начинать темы
    Вы не можете отвечать на сообщения
    Вы не можете редактировать свои сообщения
    Вы не можете удалять свои сообщения
    Вы не можете голосовать в опросах
    Вы не можете прикреплять файлы к сообщениям
    Вы можете скачивать файлы