2 сезон

iTunes

1 сезон

1

iTunes

iTunes

iTunes

1 сезон

RePack

30

ИГРА 18+

pack

ВАЖНО

!!Акция!!

Alien_RageХит недели

RePack

MK11
pack

Забери бонус

RePack

jed

!!Акция!!

Alien_Rage

RePack

fifa19

RePack

Assassins Creed: Odyssey

RePack

NEED FOR SPEED™ PAYBACK

4 сезон

9 сезон

Бесстыжие 9 сезон

Все сериалы

все сериалы на PB.wtf

RePack

FAR CRY 5
  

Жажда (Дмитрий Тюрин) [2013, Россия, драма, WEB-DLRip] pb.wtf

Жажда через торрент pb.wtf

Раздают: 1 [ 0 KB/s ]
Размер: 1.36 GB | Добавлен: 6 лет 4 мес. назад | Торрент скачан:974 раза
Скачать  

23-06-2014 16:27 Жажда Скачать торрент  

Жажда
«Кино о настоящем»

Год выпуска: 2013
Страна: Россия
Жанр:драма
Продолжительность:01:37:57
Перевод:Не требуется

Субтитры:English (хардсаб)
Режиссер:Дмитрий Тюрин

  • В ролях:

    Михаил Грубов (Костя), Сергей Лавыгин (Пашка), Роман Курцын (Генка), Никита Остриков (Серега), Алексей Гуськов (отец Кости), Галина Бокашевская (мать Кости), Анна Банщикова (Марина), Светлана Смирнова-Марцинкевич (Ольга), Георгий Соловьев (Никита), Андрей Попович (Костя (10 лет)), Игорь Лях (директор), Елена Морозова (завуч)

  • Описание:
    Костя, талантливый художник, возвращается из Чечни с обожжённым лицом и стойкой обидой на жизнь. Он замыкается в себе, мало с кем общается и рисует мрачные портреты в духе Гойи. Однажды бесследно пропадает его фронтовой друг, который во время боевой операции спас ему жизнь. Костя вместе с двумя товарищами отправляется на его поиски. Так, ведомый обстоятельствами, он начинает выходить за пределы замкнутого круга и пытается увидеть мир под другим углом.

  • Мировая премьера:19 октября 2013


      Качество: WEB-DLRip
      Формат: AVI
      Видео кодек: XviD
      Аудио кодек:AC3
      Видео: XviD, 720x400 (16:9), 1792 kbps, 25 fps, 0,249 bpp
      Аудио: AC3 / 2.0 / 44 kHz / 192 kbps / 16 bit


    Код:

    General
    Complete name                            : D:\Торенты\Zhazhda.2013.O.WEBDLRip.1400Mb.avi
    Format                                   : AVI
    Format/Info                              : Audio Video Interleave
    File size                                : 1.36 GiB
    Duration                                 : 1h 37mn
    Overall bit rate                         : 1 994 Kbps
    Writing application                      : VirtualDubMod 1.5.10.3 | www.virtualdub-fr.org || (build 2550/release)
    Writing library                          : VirtualDubMod build 2550/release

    Video
    ID                                       : 0
    Format                                   : MPEG-4 Visual
    Format profile                           : Advanced Simple@L5
    Format settings, BVOP                    : 1
    Format settings, QPel                    : No
    Format settings, GMC                     : No warppoints
    Format settings, Matrix                  : Default (MPEG)
    Muxing mode                              : Packed bitstream
    Codec ID                                 : XVID
    Codec ID/Hint                            : XviD
    Duration                                 : 1h 37mn
    Bit rate                                 : 1 792 Kbps
    Width                                    : 720 pixels
    Height                                   : 400 pixels
    Display aspect ratio                     : 16:9
    Frame rate                               : 25.000 fps
    Color space                              : YUV
    Chroma subsampling                       : 4:2:0
    Bit depth                                : 8 bits
    Scan type                                : Progressive
    Compression mode                         : Lossy
    Bits/(Pixel*Frame)                       : 0.249
    Stream size                              : 1.23 GiB (90%)
    Writing library                          : XviD 1.2.1 (UTC 2008-12-04)

    Audio
    ID                                       : 1
    Format                                   : AC-3
    Format/Info                              : Audio Coding 3
    Mode extension                           : CM (complete main)
    Codec ID                                 : 2000
    Duration                                 : 1h 37mn
    Bit rate mode                            : Constant
    Bit rate                                 : 192 Kbps
    Channel(s)                               : 2 channels
    Channel positions                        : Front: L R
    Sampling rate                            : 44.1 KHz
    Bit depth                                : 16 bits
    Compression mode                         : Lossy
    Stream size                              : 135 MiB (10%)
    Alignment                                : Split accross interleaves
    Interleave, duration                     : 40 ms (1.00 video frame)
    Interleave, preload duration             : 500 ms

    Скриншоты:

    Каталог Новинок (Фильмы-трейлеры, Игры, Сериалы, Мультфильмы)

    © Оформление by Raven
    pb.wtf



  • Скачать Жажда через торрент http://i61.fastpic.ru/big/2014/0623/08/1b304db9c64b234baad83d8138aaa008.jpg Скачать фильм Жажда через торрент бесплантно в хорошем качестве Описание:Костя, талантливый художник, возвращается из Чечни с обожжённым лицом и стойкой обидой на жизнь. Он замыкается в себе, мало с кем ... 9 10 23
    Торрент: Зарегистрирован [2014-06-23 16:27] · скачан: 974 раз
    Статус: √ проверено
    Размер: 1.36 GB
    Как cкачать? Как скачать Жажда через торрент | qTorrent

    % Раздел Тема Автор DL S | L
    T Релизы по Парсеру [Игры, Сериалы и Фильмы и другое...] [ 8.28 GB ] Основной инстинкт 2: Жажда риска / Basic Instinct 2 [2006 BDRip 720p] Dub + Original eng + Subs Ворон Скачать
    1 | 0
    Eurodance, Technopop, Disco (сборники) (mp3) [ 671 MB ] VA - Молодежная Хитовая Жажда 9 2016 / MP3 / 256 kbps / Pop Dance bober100 Скачать
    1 | 0
    Hardcore, Hardstyle, Jumpstyle (mp3) [ 183 MB ] VA - Новая Жажда Скорости vol.22 2016 / MP3 / 320 kbps / Hands Up Hardstyle Dance Club bober100 Скачать
    1 | 0
    Eurodance, Technopop, Disco (сборники) (mp3) [ 675 MB ] VA - Русская жажда скорости 2016 / MP3 / 256 kbps / pop den7z8 Скачать
    1 | 0
    Eurodance, Technopop, Disco (сборники) (mp3) [ 677 MB ] VA - Жажда скорости танцевальный ритм 2016 / MP3 / 256 kbps / pop den7z8 Скачать
    1 | 0
    Hardcore, Hardstyle, Jumpstyle (mp3) [ 185 MB ] VA - Новая Жажда Скорости Vol.20 2015 / MP3 / 320 kbps / Hands Up Hardstyle Dance Club megatoxa Скачать
    1 | 0
    Фильмы 2014 [DVDrip, WEB-DLRip, HDrip] [ 1.46 GB ] Need for Speed: Жажда скорости / Need for Speed [2014 BDRip-AVC] DUB potroks Скачать
    1 | 0

    28-11-2019 20:33  

    Отключить всю рекламу на сайте

    23-06-2014 17:54 Жажда Скачать торрент  

    недавно читал повесть "Жажда" А. Геласимова, супер просто.
    неожиданно так узнал что есть еще фильм. надеюсь не подведет. pb.wtf



    23-06-2014 23:02 Жажда Скачать торрент  

    фильм проссто суперpb.wtf



    24-06-2014 09:12 Жажда Скачать торрент  

    Книга замечательная.Надо посмотреть экранизацию...pb.wtf



      Дорогой пользователь! Огромная просьба, поблагодарите релизера, оцените раздачу и оставьте свои комментарий, если Вы скачали Жажда через торрент бесплатно! Внесите свою лепту в развитие PiratBit!
      Комментировать посты могут только пользователи прошедшие не сложную регистрацию
      Показать сообщения:    

      Жажда через торрент
      Скачать бесплатно Жажда
      Жажда скачать торрент
      Жажда смотреть онлайн
      Cкачать фильм Жажда бесплатно
      Жажда скачать торрент в хорошем качестве
      Жажда смотреть онлайн бесплатно в хорошем качестве


      Вы не можете начинать темы
      Вы не можете отвечать на сообщения
      Вы не можете редактировать свои сообщения
      Вы не можете удалять свои сообщения
      Вы не можете голосовать в опросах
      Вы не можете прикреплять файлы к сообщениям
      Вы можете скачивать файлы