новый адрес
Ссылка на приватное зеркало всего за 1$. Внимание количество ограничено!!!

iTunes

1+1

iTunes

мы

WEB-DL

1

iTunes

Чернобыль

iTunes

Ральф против интернета

Лицензия

ПШазам

Лицензия

Оно 2

Лицензия

30
pack

Вам бонус

ВАЖНО

!!Акция!!

Alien_RageХит недели

RePack

Resident Evil 21

ИГРА 18+

pack

RePack

jed

!!Акция!!

Alien_Rage

RePack

fifa19

RePack

Assassins Creed: Odyssey

RePack

NEED FOR SPEED™ PAYBACK

3 сезон

9 сезон

Бесстыжие 9 сезон

Все сериалы

все сериалы на PB.wtf

RePack

FAR CRY 5
Ребята, катастрофически не хватает 1900р. для оплаты серверов за Октябрь (всвязи с блокировками трафик упал в 3 раза), 1-2р., выручайте.
  

Секреты прошлого / Le passé (Асгар Фархади / Asghar Farhadi) [2013, Франция, Италия, драма, детектив, HDRip, Многоголосый, закадровый [Лицензия] pb.wtf

Секреты прошлого через торрент pb.wtf

Размер: 1.4 GB | Добавлен: 5 лет 5 мес. назад | Торрент скачан:145 раз
Скачать  

24-06-2014 04:33 Секреты прошлого Скачать торрент  

Секреты прошлого / Le passé


Год выпуска: 2013
Страна: Франция, Италия
Жанр:драма, детектив
Продолжительность:02:10:22
Перевод:Многоголосый, закадровый [Лицензия-iTunes]

Субтитры: Нет
Режиссер:Асгар Фархади / Asghar Farhadi

  • В ролях:

    Беренис Бежо (Marie Brisson), Тахар Рахим (Samir), Али Мосаффа (Ahmad), Полин Бурле (Lucie), Элиэ Аги (Fouad), Джинн Джестин (Léa), Сабрина Уазани (Naïma), Бабак Карими (Shahryar), Валерия Кавалли (Valeria), Александра Клебанска (Céline), Жан-Мишель Симонет (Médecin), Pierre Guerder (Juge)

  • Описание:
    Ахмад и его французская жена четыре года живут врозь. По просьбе Мари герой приезжает в Париж из Тегерана, чтобы уладить формальности, связанные с их разводом. Во время своего короткого визита Ахмад наблюдает постоянные ссоры жены и их дочери Люси. Его попытка уладить их отношения открывает секрет из прошлого...

  • Мировая премьера:17 мая 2013


      Качество: HDRip
      Формат: AVI
      Видео кодек: XviD
      Аудио кодек:AC3
      Видео: XviD, 720x384 (1.875), 1141 kbps, 23,976 fps, 0,172 bpp
      Аудио: AC3 / 5.1 / 48 kHz / 384 kbps / 16 bit


    Код:

    General
    Complete name                            : D:\Торенты\Sekreti.Proshlogo.2013.D.HDRip.1400Mb.avi
    Format                                   : AVI
    Format/Info                              : Audio Video Interleave
    File size                                : 1.40 GiB
    Duration                                 : 2h 10mn
    Overall bit rate                         : 1 535 Kbps
    Writing application                      : VirtualDubMod 1.5.10.2 (build 2540/release)
    Writing library                          : VirtualDubMod build 2540/release

    Video
    ID                                       : 0
    Format                                   : MPEG-4 Visual
    Format profile                           : Advanced Simple@L5
    Format settings, BVOP                    : 1
    Format settings, QPel                    : No
    Format settings, GMC                     : No warppoints
    Format settings, Matrix                  : Custom
    Codec ID                                 : XVID
    Codec ID/Hint                            : XviD
    Duration                                 : 2h 10mn
    Bit rate                                 : 1 142 Kbps
    Width                                    : 720 pixels
    Height                                   : 384 pixels
    Display aspect ratio                     : 1.875
    Frame rate                               : 23.976 fps
    Color space                              : YUV
    Chroma subsampling                       : 4:2:0
    Bit depth                                : 8 bits
    Scan type                                : Progressive
    Compression mode                         : Lossy
    Bits/(Pixel*Frame)                       : 0.172
    Stream size                              : 1.04 GiB (74%)
    Writing library                          : XviD 1.2.1 (UTC 2008-12-04)

    Audio
    ID                                       : 1
    Format                                   : AC-3
    Format/Info                              : Audio Coding 3
    Mode extension                           : CM (complete main)
    Codec ID                                 : 2000
    Duration                                 : 2h 10mn
    Bit rate mode                            : Constant
    Bit rate                                 : 384 Kbps
    Channel(s)                               : 6 channels
    Channel positions                        : Front: L C R, Side: L R, LFE
    Sampling rate                            : 48.0 KHz
    Bit depth                                : 16 bits
    Compression mode                         : Lossy
    Stream size                              : 358 MiB (25%)
    Alignment                                : Split accross interleaves
    Interleave, duration                     : 42 ms (1.00 video frame)
    Interleave, preload duration             : 500 ms

    Скриншоты:

    Каталог Новинок (Фильмы-трейлеры, Игры, Сериалы, Мультфильмы)

    © Оформление by Raven
    pb.wtf



  • Скачать Секреты прошлого через торрент http://i61.fastpic.ru/big/2014/0624/15/49959b646e155563102eab6a17b8a015.jpg Скачать фильм Секреты прошлого через торрент бесплантно в хорошем качестве Описание:Ахмад и его французская жена четыре года живут врозь. По просьбе Мари герой приезжает в Париж из Тегерана, чтобы уладить ... 10 10 5
    Info! Золотая раздача, скачанное не засчитывается.
    Торрент: Зарегистрирован [2014-06-24 04:33] · скачан: 145 раз
    Статус: √ проверено
    Размер: 1.4 GB
    Как cкачать? Как скачать Секреты прошлого через торрент | qTorrent

    % Раздел Тема Автор DL S | L
    Фильмы [HD 720p, 1080p] (Хороший звук DUB, MVO) [ 16.07 GB ] Секреты прошлого / Le passé [2012 BDRip 1080p] MVO AVO msltel Скачать
    1 | 0
    Фильмы (DVD фильмы) [ 7.14 GB ] Секреты прошлого / Le passé / Le passe / The Past [2013 DVD9] R5 voovaz Скачать
    1 | 0
    Фильмы с авторской озвучкой [ 2.19 GB ] Секреты прошлого / Le passé [2013 HDRip Авторский одноголосый ] coc900 Скачать
    1 | 0

    28-11-2019 20:33  

    Отключить всю рекламу на сайте

      Дорогой пользователь! Огромная просьба, поблагодарите релизера, оцените раздачу и оставьте свои комментарий, если Вы скачали Секреты прошлого через торрент бесплатно! Внесите свою лепту в развитие PiratBit!
      Комментировать посты могут только пользователи прошедшие не сложную регистрацию
      Показать сообщения:    

      Секреты прошлого через торрент
      Скачать бесплатно Секреты прошлого
      Секреты прошлого скачать торрент
      Секреты прошлого смотреть онлайн
      Cкачать фильм Секреты прошлого бесплатно
      Секреты прошлого скачать торрент в хорошем качестве
      Секреты прошлого смотреть онлайн бесплатно в хорошем качестве


      Вы не можете начинать темы
      Вы не можете отвечать на сообщения
      Вы не можете редактировать свои сообщения
      Вы не можете удалять свои сообщения
      Вы не можете голосовать в опросах
      Вы не можете прикреплять файлы к сообщениям
      Вы можете скачивать файлы